<?xml version="1.0" standalone="no"?>
<!DOCTYPE svg PUBLIC "-//W3C//DTD SVG 1.1//EN" "http://www.w3.org/Graphics/SVG/1.1/DTD/svg11.dtd" >
<svg xmlns="http://www.w3.org/2000/svg" xmlns:xlink="http://www.w3.org/1999/xlink" version="1.1">
<metadata></metadata>
<defs>
<font id="museo_sans_rounded700" horiz-adv-x="1267" >
<font-face units-per-em="2048" ascent="1536" descent="-512" />
<missing-glyph horiz-adv-x="512" />
<glyph horiz-adv-x="0" />
<glyph horiz-adv-x="682" />
<glyph unicode=" "  horiz-adv-x="512" />
<glyph unicode="&#x09;" horiz-adv-x="512" />
<glyph unicode="&#xa0;" horiz-adv-x="512" />
<glyph unicode="!" horiz-adv-x="552" d="M143 1366q0 88 84 88h97q87 0 84 -88l-17 -862q0 -84 -86 -84h-59q-83 0 -86 84zM152 86v72q0 86 84 86h81q86 0 86 -86v-72q0 -86 -86 -86h-81q-84 0 -84 86z" />
<glyph unicode="&#x22;" horiz-adv-x="724" d="M102 1108v287q0 86 84 86h23q86 0 86 -86v-287q0 -84 -86 -84h-23q-84 0 -84 84zM430 1108v287q0 86 86 86h23q84 0 84 -86v-287q0 -84 -84 -84h-23q-86 0 -86 84z" />
<glyph unicode="#" horiz-adv-x="1425" d="M78 473l4 21q9 75 90 75h166l51 287h-149q-43 0 -63.5 24.5t-14.5 65.5l4 21q12 77 90 77h164l57 332q15 78 94 78h35q44 0 65 -24.5t13 -67.5l-55 -318h278l60 332q12 78 92 78h37q90 0 78 -92l-58 -318h154q44 0 65 -24.5t13 -67.5l-2 -18q-12 -78 -93 -78h-168 l-51 -287h152q90 0 78 -90l-4 -20q-12 -76 -93 -76h-163l-54 -305q-12 -78 -92 -78h-37q-44 0 -65 24.5t-13 67.5l52 291h-281l-51 -305q-15 -78 -94 -78h-37q-90 0 -78 92l51 291h-149q-93 0 -78 90zM547 569h278l52 287h-281z" />
<glyph unicode="$" horiz-adv-x="1124" d="M92 1057q0 157 107 270q108 114 278 141v109q0 84 82 84h14q80 0 80 -72v-116q164 -12 297 -103q64 -40 25 -115l-35 -69q-40 -70 -117 -27q-122 76 -245 76q-94 0 -158 -49.5t-64 -124.5q0 -25 9 -47.5t30 -42t41.5 -34.5t57 -33t63 -30t72.5 -31.5t73 -31.5 q94 -46 166 -90q81 -46 131 -130.5t50 -189.5q0 -162 -107 -278q-108 -117 -289 -141v-103q0 -86 -80 -86h-14q-82 0 -82 72v117q-198 22 -348 139q-67 48 -14 119l45 63q48 66 119 19q145 -103 292 -103q94 0 153.5 47t59.5 129q0 115 -245 213q-119 51 -203 94 q-108 55 -176 147t-68 208z" />
<glyph unicode="%" horiz-adv-x="1622" d="M80 1155q0 131 96 227q102 97 238 97q133 0 235 -97q99 -94 99 -227q0 -135 -99 -229q-95 -95 -235 -95q-138 0 -238 95q-96 96 -96 229zM194 30.5q-14 30.5 19 73.5l995 1299q39 51 105 51h41q56 0 71 -30.5t-20 -73.5l-995 -1299q-39 -51 -105 -51h-43q-54 0 -68 30.5z M279 1155q0 -57 39 -96t96 -39t97 39t40 96q0 56 -40 95.5t-97 39.5t-96 -39.5t-39 -95.5zM874 297q0 130 97 227q102 97 237 97q134 0 236 -97q98 -94 98 -227t-98 -227q-95 -95 -236 -95q-137 0 -237 95q-97 97 -97 227zM1073 299q0 -57 39 -96t96 -39t97.5 39t40.5 96 q0 56 -40.5 95.5t-97.5 39.5t-96 -39.5t-39 -95.5z" />
<glyph unicode="&#x26;" horiz-adv-x="1335" d="M80 412q0 120 67 221q66 100 181 141v4q-17 3 -66 41q-119 106 -119 277q0 183 129 282q128 101 330 101h86q86 0 86 -86v-52q0 -84 -86 -84h-67q-95 0 -153 -55.5t-58 -138.5q0 -85 54.5 -139t166.5 -54h231v105q0 84 86 84h88q86 0 86 -70v-119h103q86 0 86 -86v-57 q0 -86 -86 -86h-103v-172q0 -224 -139 -360q-140 -134 -385 -134q-231 0 -375 123q-143 125 -143 314zM350 428q0 -91 69.5 -151t178.5 -60q128 0 196 68t68 198v158h-246q-126 0 -196 -55t-70 -158z" />
<glyph unicode="'" horiz-adv-x="397" d="M100 1139v256q0 86 86 86h27q84 0 84 -86v-256q0 -86 -84 -86h-27q-86 0 -86 86z" />
<glyph unicode="(" horiz-adv-x="583" d="M88 702q0 398 207 758q34 58 102 58h39q50 0 66.5 -28.5t-6.5 -72.5q-177 -357 -177 -717q0 -407 183 -794q21 -44 4 -72.5t-66 -28.5h-43q-69 0 -96 52q-213 387 -213 845z" />
<glyph unicode=")" horiz-adv-x="583" d="M77 1489.5q15 28.5 64 28.5h43q69 0 103 -58q209 -361 209 -758q0 -456 -211 -839q-30 -58 -101 -58h-41q-49 0 -65.5 30.5t4.5 74.5q180 381 180 790q0 370 -176 717q-24 44 -9 72.5z" />
<glyph unicode="*" horiz-adv-x="960" d="M88 1149l16 51q27 87 107 51l168 -65l-10 178q-4 43 17.5 66.5t64.5 23.5h57q89 0 80 -88l-10 -180l165 65q87 35 111 -49l16 -51q27 -84 -57 -102l-176 -48v-4l113 -135q59 -65 -13 -121l-43 -30q-69 -55 -116 22l-97 150h-4l-94 -148q-47 -78 -119 -24l-43 30 q-72 53 -14 117l112 139v4l-169 46q-86 18 -62 102z" />
<glyph unicode="+" d="M86 569v31q0 86 86 86h356v399q0 86 86 86h41q84 0 84 -86v-399h359q84 0 84 -86v-31q0 -86 -84 -86h-359v-397q0 -86 -84 -86h-41q-86 0 -86 86v397h-356q-86 0 -86 86z" />
<glyph unicode="," horiz-adv-x="499" d="M43 -147l100 340q21 71 97 71h77q47 0 66 -28t0 -72l-141 -342q-28 -66 -99 -66h-26q-47 0 -66.5 26t-7.5 71z" />
<glyph unicode="-" horiz-adv-x="854" d="M119 557v57q0 84 86 84h444q86 0 86 -84v-57q0 -86 -86 -86h-444q-86 0 -86 86z" />
<glyph unicode="." horiz-adv-x="487" d="M113 86v92q0 84 86 84h90q86 0 86 -84v-92q0 -86 -86 -86h-90q-86 0 -86 86z" />
<glyph unicode="/" horiz-adv-x="831" d="M74 10l469 1448q24 70 98 70h45q47 0 66.5 -26t5.5 -70l-469 -1448q-21 -70 -96 -70h-48q-47 0 -66 26t-5 70z" />
<glyph unicode="0" horiz-adv-x="1277" d="M113 729q0 750 526 750q109 0 196 -33t147 -95t98.5 -143t58.5 -184q28 -137 28 -295q0 -331 -114 -532q-57 -105 -166 -164q-104 -58 -248 -58q-143 0 -250 58q-147 86 -210 262.5t-66 433.5zM383 729q0 -512 256 -512t256 512q0 506 -256 506t-256 -506z" />
<glyph unicode="1" horiz-adv-x="1007" d="M88 86v57q0 84 84 84h231v807l3 99h-5q-18 -40 -55 -74l-63 -62q-63 -58 -119 4l-39 41q-59 60 2 121l258 248q49 43 107 43h86q84 0 84 -86v-1141h229q86 0 86 -84v-57q0 -86 -86 -86h-719q-84 0 -84 86z" />
<glyph unicode="2" horiz-adv-x="1161" d="M88 86v43q0 106 37.5 198t97.5 158.5t132.5 124.5t145 107.5t132.5 96t97.5 100.5t37.5 112q0 91 -63 147t-158 56q-126 0 -215 -109q-65 -65 -121 -18l-55 43q-68 53 -23 115q168 219 436 219q198 0 336 -117q137 -113 137 -313q0 -94 -36 -176.5t-94 -142.5t-128 -113 t-140 -98.5t-129 -89.5t-96.5 -95.5t-39.5 -106.5h600q86 0 86 -84v-57q0 -86 -86 -86h-799q-42 0 -67 22.5t-25 63.5z" />
<glyph unicode="3" horiz-adv-x="1146" d="M94 236l41 63q43 65 117 18q133 -92 262 -92q113 0 187.5 61.5t74.5 155.5q0 107 -86 166.5t-225 59.5h-31q-67 0 -94 59l-8 16q-28 60 18 111l223 264q55 68 105 111v4q-46 -6 -129 -6h-350q-84 0 -84 84v57q0 86 84 86h716q86 0 86 -84v-22q0 -67 -38 -105l-318 -366 q166 -21 281 -136q116 -110 116 -288q0 -196 -139 -338q-140 -140 -373 -140q-227 0 -419 142q-65 50 -17 119z" />
<glyph unicode="4" horiz-adv-x="1243" d="M41 459v20q0 57 31 105l561 815q34 55 102 55h160q86 0 86 -86v-774h102q86 0 86 -84v-51q0 -84 -69 -84h-119v-289q0 -86 -86 -86h-90q-84 0 -84 86v289h-596q-84 0 -84 84zM319 594h402v450l10 152h-4q-41 -90 -72 -133l-336 -465v-4z" />
<glyph unicode="5" horiz-adv-x="1146" d="M117 238l41 61q44 68 116 16q116 -90 242 -90q111 0 191 68q81 69 81 180q0 112 -81 182t-209 70q-81 0 -168 -37q-66 -22 -115 -4l-18 6q-70 27 -64 103l53 579q6 82 88 82h598q86 0 86 -86v-57q0 -84 -86 -84h-450l-23 -240l-10 -67h4q63 32 156 32q236 0 373 -137 q139 -139 139 -340q0 -214 -150 -358q-151 -142 -374 -142q-230 0 -408 146q-65 47 -12 117z" />
<glyph unicode="6" horiz-adv-x="1226" d="M100 657q0 152 43 296.5t123 263.5q81 121 213.5 191.5t290.5 70.5q129 0 219 -33q79 -24 51 -109l-24 -67q-21 -72 -101 -56q-70 21 -131 21q-162 0 -262 -115q-99 -114 -129 -286h4q39 51 117.5 82.5t175.5 31.5q203 0 326 -135q125 -134 125 -332q0 -211 -135 -358 q-133 -148 -344 -148q-236 0 -400 185q-162 186 -162 497zM375 561q0 -115 84 -231q85 -113 203 -113q98 0 158.5 69.5t60.5 178.5q0 119 -73.5 192.5t-205.5 73.5q-99 0 -163 -47.5t-64 -122.5z" />
<glyph unicode="7" horiz-adv-x="1079" d="M51 1311v57q0 86 84 86h830q86 0 86 -84v-45q0 -56 -25 -104l-582 -1160q-34 -61 -102 -61h-92q-50 0 -67.5 28t5.5 72l496 994q51 97 82 133v4q-28 -4 -94 -4h-537q-84 0 -84 84z" />
<glyph unicode="8" horiz-adv-x="1239" d="M98 412q0 73 26.5 142t70.5 118q71 82 127 121q-166 117 -166 290q0 162 120 279t345 117q209 0 342 -109q135 -108 135 -285q0 -86 -37 -170q-23 -54 -47 -94t-39.5 -57.5t-40.5 -42.5q201 -121 201 -315q0 -174 -142 -304q-142 -127 -375 -127q-231 0 -376 127 q-144 126 -144 310zM362 440q0 -103 74.5 -169t184.5 -66q101 0 172 59t71 146q0 61 -37 98l-39 37q-23 21 -122 69l-80 35l-86 37l-58 -53q-21 -21 -49 -76q-31 -60 -31 -117zM414 1079q0 -15 4 -43q11 -25 20 -39l23 -32q9 -15 35 -31l39 -25l98 -49l55 -24l57 -23l13 16 l16 27l19 29q49 82 49 170q0 91 -59 142.5t-160 51.5q-98 0 -153.5 -47.5t-55.5 -122.5z" />
<glyph unicode="9" horiz-adv-x="1226" d="M86 981q0 207 133 352q134 146 344 146q237 0 400 -187q163 -184 163 -495q0 -204 -71 -387t-228 -310q-155 -125 -370 -125q-129 0 -219 33q-79 24 -52 107l25 69q12 40 34.5 51t65.5 5q90 -23 131 -23q163 0 263 115q99 114 129 289h-5q-39 -51 -121.5 -84t-175.5 -33 q-194 0 -321 139q-125 137 -125 338zM348 987q0 -119 72.5 -192.5t204.5 -73.5q98 0 162.5 48.5t64.5 123.5q0 117 -86 229q-82 113 -201 113q-98 0 -157.5 -68.5t-59.5 -179.5z" />
<glyph unicode=":" horiz-adv-x="501" d="M123 86v88q0 86 84 86h88q86 0 86 -86v-88q0 -86 -86 -86h-88q-84 0 -84 86zM123 868v90q0 86 84 86h88q86 0 86 -86v-90q0 -84 -86 -84h-88q-84 0 -84 84z" />
<glyph unicode=";" horiz-adv-x="565" d="M76 -150l86 340q18 74 94 74h78q49 0 67.5 -27t-0.5 -71l-125 -342q-21 -68 -98 -68h-28q-44 0 -64.5 25.5t-9.5 68.5zM182 866v92q0 86 84 86h84q86 0 86 -86v-92q0 -86 -86 -86h-84q-84 0 -84 86z" />
<glyph unicode="&#x3c;" d="M115 573v25q0 74 63 100l821 365q44 20 72.5 1.5t28.5 -65.5v-47q0 -71 -68 -98l-643 -266v-4l643 -267q68 -27 68 -98v-47q0 -49 -28.5 -67t-72.5 1l-821 367q-63 26 -63 100z" />
<glyph unicode="=" d="M135 358v31q0 86 84 86h830q86 0 86 -86v-31q0 -84 -86 -84h-830q-84 0 -84 84zM135 780v31q0 84 84 84h830q86 0 86 -84v-31q0 -86 -86 -86h-830q-84 0 -84 86z" />
<glyph unicode="&#x3e;" d="M170 172v47q0 70 66 98l643 267v4l-643 266q-66 28 -66 98v47q0 48 27 66t71 -2l822 -365q65 -30 65 -100v-25q0 -73 -65 -100l-822 -364q-44 -20 -71 -2.5t-27 65.5z" />
<glyph unicode="?" horiz-adv-x="960" d="M94 1274q-52 70 15 115q140 94 317 94q184 0 315 -107q133 -106 133 -278q0 -65 -18.5 -121.5t-48 -98.5t-66 -79t-74 -70t-69 -65t-53.5 -70.5t-27 -79.5l-4 -35q-15 -59 -82 -59h-82q-86 0 -86 84v33q0 70 35 135q36 59 86 106l98 90q119 103 119 205q0 72 -57 121 t-142 49q-67 0 -151 -41q-82 -44 -123 21zM264 86v72q0 86 86 86h82q84 0 84 -86v-72q0 -86 -84 -86h-82q-86 0 -86 86z" />
<glyph unicode="@" horiz-adv-x="1658" d="M94 492q0 321 223 540q223 223 549 223q294 0 428 -125q136 -127 136 -321v-512h63q84 0 84 -84v-16q0 -86 -84 -86h-481q-202 0 -320 112q-121 115 -121 269t119 264t322 110h172q-1 79 -88.5 130t-221.5 51q-220 0 -370 -166q-152 -169 -152 -389q0 -212 129 -365 t344 -180q82 -12 82 -88v-33q0 -43 -23 -64.5t-65 -17.5q-325 27 -524 238q-201 213 -201 510zM829 498q0 -87 56 -144t143 -57h156v401h-152q-90 0 -146.5 -57t-56.5 -143z" />
<glyph unicode="A" horiz-adv-x="1298" d="M25 61q0 18 8 37l454 1286q24 70 97 70h131q75 0 96 -70l455 -1286q8 -19 8 -37q0 -19 -12 -34q-18 -27 -66 -27h-94q-75 0 -96 70l-103 303h-510l-100 -301q-21 -72 -96 -72h-95q-47 0 -65 27q-12 15 -12 34zM459 588h379l-129 389l-58 225h-4q-39 -165 -57 -225z" />
<glyph unicode="B" horiz-adv-x="1277" d="M168 86v1282q0 86 84 86h434q202 0 326 -100q125 -98 125 -275q0 -102 -47 -184t-129 -127v-4q109 -31 171 -126t62 -216q0 -209 -143 -316q-138 -106 -359 -106h-440q-84 0 -84 86zM430 227h283q97 0 154 58t57 153q0 93 -57 151t-154 58h-283v-420zM430 860h258 q83 0 130.5 51.5t47.5 135.5q0 83 -47.5 131.5t-136.5 48.5h-252v-367z" />
<glyph unicode="C" horiz-adv-x="1441" d="M82 733q0 322 211 533q213 213 538 213q268 0 476 -146q34 -27 34 -63q0 -26 -18 -56l-37 -59q-23 -39 -59 -39q-26 0 -58 19q-156 102 -327 102q-229 0 -359 -145q-129 -144 -129 -355q0 -216 131 -368q134 -152 359 -152q179 0 356 127q33 23 60 23q32 0 59 -37l41 -56 q22 -28 22 -55q0 -36 -34 -63q-224 -181 -514 -181q-339 0 -545 215q-207 216 -207 543z" />
<glyph unicode="D" horiz-adv-x="1490" d="M168 86v1282q0 86 84 86h412q342 0 540 -192q201 -195 201 -533q0 -339 -201 -534t-540 -195h-412q-84 0 -84 86zM430 227h219q227 0 355.5 131t128.5 371q0 236 -129.5 367t-354.5 131h-219v-1000z" />
<glyph unicode="E" horiz-adv-x="1140" d="M168 86v1282q0 86 84 86h700q86 0 86 -86v-57q0 -84 -86 -84h-522v-381h406q86 0 86 -84v-57q0 -87 -86 -87h-406v-391h555q86 0 86 -84v-57q0 -86 -86 -86h-733q-84 0 -84 86z" />
<glyph unicode="F" horiz-adv-x="1048" d="M168 86v1282q0 86 84 86h666q86 0 86 -86v-57q0 -84 -86 -84h-488v-412h397q86 0 86 -84v-57q0 -86 -86 -86h-397v-502q0 -86 -84 -86h-94q-84 0 -84 86z" />
<glyph unicode="G" horiz-adv-x="1544" d="M82 721q0 325 213 541q211 217 539 217q146 0 271.5 -39.5t203.5 -93.5q37 -27 37 -64q0 -26 -19 -55l-37 -58q-26 -39 -63 -39q-22 0 -56 17q-159 90 -323 90q-230 0 -363 -145q-131 -143 -131 -359q0 -225 140 -371q142 -145 346 -145q211 0 350 139l18 21v162h-139 q-86 0 -86 86v55q0 86 86 86h291q84 0 84 -86v-594q0 -86 -84 -86h-51q-84 0 -84 70v34l2 35h-4l-19 -16q-12 -14 -53 -42.5t-84 -49.5q-49 -23 -123 -39.5t-147 -16.5q-297 0 -506 209q-209 212 -209 537z" />
<glyph unicode="H" horiz-adv-x="1525" d="M168 86v1282q0 86 84 86h94q84 0 84 -86v-530h666v530q0 86 86 86h92q84 0 84 -86v-1282q0 -86 -84 -86h-92q-86 0 -86 86v524h-666v-524q0 -86 -84 -86h-94q-84 0 -84 86z" />
<glyph unicode="I" horiz-adv-x="598" d="M168 86v1282q0 86 84 86h94q84 0 84 -86v-1282q0 -86 -84 -86h-94q-84 0 -84 86z" />
<glyph unicode="J" horiz-adv-x="1095" d="M39 430q0 84 84 84h96q41 0 59 -18.5t23 -63.5q6 -100 54.5 -157.5t136.5 -57.5q85 0 136.5 55t51.5 162v793h-289q-86 0 -86 84v57q0 86 86 86h467q86 0 86 -86v-938q0 -223 -135 -340q-133 -115 -317 -115q-185 0 -320 117q-133 121 -133 338z" />
<glyph unicode="K" horiz-adv-x="1286" d="M168 86v1282q0 86 84 86h94q84 0 84 -86v-506h191l307 533q35 59 100 59h100q52 0 68 -29q6 -12 6 -26q0 -22 -14 -47l-352 -590v-4l378 -656q17 -31 17 -49q0 -12 -6 -24q-19 -29 -70 -29h-113q-65 0 -100 59l-321 576h-191v-549q0 -86 -84 -86h-94q-84 0 -84 86z" />
<glyph unicode="L" horiz-adv-x="1067" d="M168 86v1282q0 86 84 86h94q84 0 84 -86v-1141h543q86 0 86 -84v-57q0 -86 -86 -86h-721q-84 0 -84 86z" />
<glyph unicode="M" horiz-adv-x="1746" d="M121 78v10l104 1284q9 82 88 82h129q73 0 97 -70l260 -649l73 -213h5q59 182 71 213l260 649q24 70 99 70h127q82 0 88 -82l104 -1284v-10q0 -78 -82 -78h-92q-82 0 -88 82l-55 731q-4 78 -4 127q0 63 2 98h-4q-60 -182 -78 -225l-211 -496q-24 -67 -96 -67h-87 q-74 0 -98 67l-209 496l-80 227h-4q2 -35 2 -98q0 -51 -4 -129l-55 -731q-6 -82 -88 -82h-92q-82 0 -82 78z" />
<glyph unicode="N" horiz-adv-x="1521" d="M168 86v1282q0 86 84 86h110q74 0 103 -57l516 -783l55 -94l47 -94l19 -37h4q-14 129 -14 225v754q0 86 86 86h92q86 0 86 -86v-1282q0 -86 -86 -86h-111q-71 0 -100 57l-518 781q-44 74 -54 96l-49 92l-18 37h-4q14 -129 14 -225v-752q0 -86 -84 -86h-94q-84 0 -84 86z " />
<glyph unicode="O" horiz-adv-x="1667" d="M82 737q0 318 211 529q213 213 541 213q325 0 538 -213t213 -529q0 -323 -213 -542q-214 -220 -538 -220q-327 0 -541 220q-211 217 -211 542zM354 737q0 -222 135 -372q139 -148 345 -148t342 148q137 149 137 372q0 214 -137 357q-134 143 -342 143t-345 -143 q-135 -144 -135 -357z" />
<glyph unicode="P" horiz-adv-x="1236" d="M168 86v1282q0 86 84 86h475q206 0 334 -131q129 -132 129 -342q0 -211 -129 -346q-130 -133 -334 -133h-297v-416q0 -86 -84 -86h-94q-84 0 -84 86zM430 731h248q115 0 179.5 67t64.5 183q0 113 -64 179.5t-176 66.5h-252v-496z" />
<glyph unicode="Q" horiz-adv-x="1667" d="M82 735q0 316 213 529q212 215 539 215q325 0 538 -213t213 -531q0 -254 -160 -461l99 -92q35 -27 35 -61q0 -30 -27 -60l-37 -38q-33 -33 -61 -33t-52 24l-104 105q-190 -144 -444 -144q-325 0 -539 220q-213 219 -213 540zM354 735q0 -220 138 -370q139 -148 342 -148 q143 0 253 78l-100 96q-33 26 -33 60q0 29 27 59l37 39q30 35 61 35q26 0 51 -25l103 -104q80 127 80 280q0 216 -137 359t-342 143t-342 -143q-138 -144 -138 -359z" />
<glyph unicode="R" horiz-adv-x="1282" d="M168 86v1282q0 86 84 86h393q192 0 277 -39q114 -48 178.5 -152t64.5 -245q0 -132 -66 -242.5t-175 -154.5v-5q21 -25 47 -75l239 -439q17 -31 17 -49q0 -12 -6 -24q-19 -29 -70 -29h-111q-65 0 -100 59l-256 484h-254v-457q0 -86 -84 -86h-94q-84 0 -84 86zM430 772h238 q105 0 167 63t62 169q0 151 -115 198q-55 25 -157 25h-195v-455z" />
<glyph unicode="S" horiz-adv-x="1124" d="M82 186q0 28 22 56l46 65q24 35 61 35q25 0 57 -16q152 -107 295 -107q99 0 158 46t59 120q0 44 -23 80.5t-62.5 63.5t-90.5 52t-107 49t-112 51t-107 62.5t-90.5 78t-62.5 103t-23 132.5q0 186 140 305q138 117 350 117q109 0 210.5 -32.5t164.5 -78.5q41 -27 41 -68 q0 -22 -15 -49l-37 -67q-20 -45 -63 -45q-21 0 -53 16q-139 80 -252 80q-102 0 -162 -45q-59 -47 -59 -119q0 -76 69 -127q41 -32 100.5 -61t141 -63.5t127.5 -57.5q107 -51 173 -142t66 -214q0 -186 -131 -308q-129 -123 -350 -123q-127 0 -246.5 43t-199.5 105 q-35 27 -35 63z" />
<glyph unicode="T" horiz-adv-x="1239" d="M12 1311v57q0 86 86 86h1045q84 0 84 -86v-57q0 -84 -84 -84h-391v-1141q0 -86 -86 -86h-93q-84 0 -84 86v1141h-391q-86 0 -86 84z" />
<glyph unicode="U" horiz-adv-x="1472" d="M152 522v846q0 86 84 86h92q86 0 86 -86v-844q0 -145 86 -226t235 -81t236.5 81t87.5 226v844q0 86 84 86h94q84 0 84 -86v-846q0 -246 -162 -395q-161 -152 -422 -152q-263 0 -426 150q-159 150 -159 397z" />
<glyph unicode="V" horiz-adv-x="1306" d="M16 1393q0 18 13 34q18 27 65 27h109q75 0 96 -72l297 -876l55 -213h4q24 116 56 213l301 876q18 72 94 72h104q47 0 68 -27q10 -17 10 -34q0 -18 -8 -37l-465 -1288q-21 -68 -96 -68h-131q-75 0 -96 68l-467 1288q-9 21 -9 37z" />
<glyph unicode="W" horiz-adv-x="1966" d="M68 1386q0 27 14 44q18 24 63 24h103q74 0 92 -76l211 -929l22 -154h5q9 73 30 154l242 931q21 74 96 74h70q77 0 92 -74l240 -931l30 -154h4q6 65 25 154l223 929q15 76 94 76h97q44 0 65 -24q15 -18 15 -44q0 -1 -5 -26l-333 -1288q-21 -72 -97 -72h-145q-76 0 -94 74 l-207 786q-23 91 -39 191h-6q-14 -86 -37 -191l-209 -786q-18 -74 -94 -74h-148q-76 0 -94 74l-321 1286q-4 20 -4 26z" />
<glyph unicode="X" horiz-adv-x="1245" d="M57 53q0 18 17 49l389 635l-373 615q-16 29 -16 49q0 12 6 24q16 29 67 29h115q65 0 100 -59l168 -297l91 -178h4q47 99 90 178l170 297q35 59 100 59h115q51 0 67 -29q7 -14 7 -24q0 -18 -17 -49l-375 -615l389 -635q17 -31 17 -51q0 -10 -4 -22q-16 -29 -70 -29h-106 q-66 0 -101 59l-194 332l-90 172h-5q-39 -84 -88 -172l-192 -332q-35 -59 -100 -59h-105q-54 0 -70 29q-6 9 -6 24z" />
<glyph unicode="Y" horiz-adv-x="1187" d="M20 1399q0 14 9 26q16 29 65 29h115q69 0 98 -63l197 -365l88 -195h4q54 130 88 195l197 365q29 63 98 63h115q51 0 67 -29q6 -12 6 -26q0 -22 -14 -47l-428 -744v-522q0 -86 -84 -86h-92q-86 0 -86 86v522l-426 744q-17 31 -17 47z" />
<glyph unicode="Z" horiz-adv-x="1230" d="M63 86v25q0 58 35 108l611 877q49 74 92 116l14 15v4q-54 -4 -108 -4h-525q-86 0 -86 84v57q0 86 86 86h881q84 0 84 -84v-24q0 -65 -33 -109l-612 -879q-50 -73 -92 -116l-15 -15v-4q54 4 109 4h567q86 0 86 -84v-57q0 -86 -86 -86h-921q-87 0 -87 86z" />
<glyph unicode="[" horiz-adv-x="620" d="M147 -109v1543q0 84 86 84h234q86 0 86 -84v-19q0 -86 -80 -86h-102v-1335h96q86 0 86 -86v-17q0 -86 -86 -86h-234q-86 0 -86 86z" />
<glyph unicode="\" horiz-adv-x="831" d="M74 1432q-14 44 5 70t66 26h45q75 0 99 -70l467 -1448q14 -45 -4.5 -70.5t-65.5 -25.5h-47q-74 0 -98 70z" />
<glyph unicode="]" horiz-adv-x="620" d="M70 -92q0 86 84 86h98v1335h-98q-84 0 -84 86v19q0 84 84 84h235q84 0 84 -84v-1543q0 -86 -84 -86h-235q-84 0 -84 86v17z" />
<glyph unicode="^" d="M174 529.5q-19 27.5 0 70.5l342 789q27 65 98 65h23q73 0 100 -65l340 -789q19 -43 1.5 -70.5t-66.5 -27.5h-45q-72 0 -99 67l-241 611l-244 -611q-21 -67 -98 -67h-43q-49 0 -68 27.5z" />
<glyph unicode="_" horiz-adv-x="1155" d="M2 -86q0 86 86 86h979q84 0 84 -86v-31q0 -84 -84 -84h-979q-86 0 -86 84v31z" />
<glyph unicode="`" horiz-adv-x="1009" d="M351.5 1798q12.5 31 66.5 31h76q65 0 100 -60l72 -124q24 -35 12.5 -65t-53.5 -30h-54q-61 0 -104 52l-92 124q-36 41 -23.5 72z" />
<glyph unicode="a" horiz-adv-x="1075" d="M49 289q0 106 59 181.5t160 111.5q178 63 391 63h43v25q0 184 -194 184q-105 0 -217 -59q-29 -13 -49 -13q-45 0 -66 47l-20 39q-15 27 -15 50q0 41 47 65q170 86 342 86q203 0 318 -110t115 -306v-567q0 -86 -86 -86h-70q-84 0 -84 86v41l4 45h-4q-24 -40 -49 -70 q-113 -127 -279 -127q-142 0 -245 86q-101 88 -101 228zM307 311q0 -57 43.5 -97t114.5 -40q104 0 172 86t68 189v38h-43q-355 0 -355 -176z" />
<glyph unicode="b" horiz-adv-x="1234" d="M129 86v1282q0 86 86 86h88q86 0 86 -86v-379l-6 -88h4l10 17q9 15 39.5 44.5t59.5 47.5q34 25 92.5 42t118.5 17q206 0 333 -151t127 -394q0 -247 -135 -397q-137 -152 -342 -152q-64 0 -121 17.5t-94 45t-60 51t-34 44.5l-10 19h-4q4 -20 4 -46v-32q0 -74 -86 -74h-70 q-86 0 -86 86zM381 522q0 -136 68 -231q72 -96 190 -96q115 0 189.5 88t74.5 235q0 148 -71 238t-187 90q-115 0 -189.5 -85.5t-74.5 -238.5z" />
<glyph unicode="c" horiz-adv-x="1085" d="M63 522q0 231 156 387q157 160 412 160q193 0 342 -104q37 -24 37 -60q0 -27 -21 -57l-26 -41q-24 -37 -62 -37q-28 0 -53 14q-94 64 -203 64q-141 0 -229 -94q-88 -91 -88 -230q0 -137 90 -233q88 -94 235 -94q121 0 234 79q34 17 53 17q40 0 64 -43l20 -39 q14 -25 14 -51q0 -37 -37 -64q-165 -121 -370 -121q-256 0 -412 156t-156 391z" />
<glyph unicode="d" horiz-adv-x="1234" d="M68 522q0 247 131 396q133 151 342 151q118 0 196 -45t99 -90l10 -14h4q-4 36 -4 59v389q0 86 84 86h90q84 0 84 -86v-1282q0 -86 -84 -86h-76q-84 0 -84 78v41l4 37h-4q-1 -1 -4.5 -8t-6.5 -12t-12.5 -17t-23.5 -27q-41 -48 -112.5 -82.5t-168.5 -34.5q-209 0 -337 152 q-127 151 -127 395zM330 522q0 -148 71.5 -237.5t188.5 -89.5q115 0 188.5 85.5t73.5 243.5q0 131 -68 226q-69 96 -192 96q-113 0 -187.5 -89t-74.5 -235z" />
<glyph unicode="e" horiz-adv-x="1118" d="M66 522q0 243 147 393q148 154 383 154q216 0 340 -139q123 -138 123 -359q0 -35 -26.5 -61.5t-63.5 -26.5h-637q12 -132 99 -209t214 -77q118 0 225 67q27 12 52 12q39 0 63 -40l25 -41q14 -25 14 -50q0 -38 -43 -65q-163 -105 -354 -105q-250 0 -408 158 q-153 159 -153 389zM338 641h463q-1 105 -60 168t-151 63q-98 0 -165.5 -62.5t-86.5 -168.5z" />
<glyph unicode="f" horiz-adv-x="692" d="M49 909v35q0 86 84 86h51v49q0 89 31 163.5t78 115.5q69 57 147 80.5t144 23.5h30q84 0 84 -86v-53q0 -78 -88 -84q-59 -3 -106 -29q-60 -35 -60 -141v-39h140q84 0 84 -86v-35q0 -86 -84 -86h-140v-737q0 -86 -86 -86h-90q-84 0 -84 86v737h-51q-84 0 -84 86z" />
<glyph unicode="g" horiz-adv-x="1218" d="M70 551q0 227 123 371q123 147 348 147q68 0 125 -16t91.5 -40t55 -46t29.5 -41l8 -17h4q-2 6 -2 27v39q0 32 22 50.5t62 18.5h70q84 0 84 -86v-895q0 -248 -162 -370q-159 -123 -379 -123q-177 0 -305 55q-56 21 -56 68q0 17 11 43l16 47q24 53 72 53q19 0 37 -6 q101 -39 211 -39q136 0 215 64t79 190v78l5 53h-5q-89 -156 -286 -156q-220 0 -348 152q-125 149 -125 379zM332 561q0 -147 70 -234t192 -87q110 0 176 75.5t66 229.5q0 303 -254 303q-117 0 -183.5 -77.5t-66.5 -209.5z" />
<glyph unicode="h" horiz-adv-x="1226" d="M129 86v1282q0 86 86 86h88q86 0 86 -86v-422l-6 -88h4q45 89 144 150t219 61q364 0 364 -397v-586q0 -86 -86 -86h-88q-86 0 -86 86v532q0 108 -37.5 160.5t-126.5 52.5q-137 0 -219 -98q-82 -94 -82 -248v-399q0 -86 -86 -86h-88q-86 0 -86 86z" />
<glyph unicode="i" horiz-adv-x="516" d="M129 86v872q0 86 84 86h90q84 0 84 -86v-872q0 -86 -84 -86h-90q-84 0 -84 86zM129 1307v61q0 86 84 86h90q86 0 86 -86v-61q0 -84 -86 -84h-90q-84 0 -84 84z" />
<glyph unicode="j" horiz-adv-x="518" d="M-125 -285q0 41 21 59t63 25q34 4 58 11.5t52.5 26.5t44 57.5t15.5 95.5v968q0 86 86 86h88q86 0 86 -86v-985q0 -81 -22 -146.5t-59 -107t-79.5 -71.5t-90 -44.5t-83 -21t-65.5 -6.5h-31q-84 0 -84 86v53zM129 1307v61q0 86 86 86h90q84 0 84 -86v-61q0 -84 -84 -84h-90 q-86 0 -86 84z" />
<glyph unicode="k" horiz-adv-x="1091" d="M129 86v1282q0 86 86 86h88q86 0 86 -86v-692h129l217 311q34 57 103 57h98q53 0 68 -30q4 -12 4 -23q0 -21 -19 -49l-260 -364v-5l307 -471q17 -31 17 -49q0 -15 -6 -24q-16 -29 -68 -29h-111q-65 0 -100 59l-244 398h-135v-371q0 -86 -86 -86h-88q-86 0 -86 86z" />
<glyph unicode="l" horiz-adv-x="571" d="M127 326v1042q0 86 84 86h90q84 0 84 -86v-1022q0 -116 82 -125q63 -6 63 -74v-69q0 -88 -86 -88q-120 0 -208 53q-52 33 -80.5 106t-28.5 177z" />
<glyph unicode="m" horiz-adv-x="1839" d="M129 86v872q0 86 84 86h80q84 0 84 -86v-63l-4 -47h4q45 92 139.5 156.5t202.5 64.5q240 0 305 -215h4q46 91 144.5 153t211.5 62q342 0 342 -397v-586q0 -86 -86 -86h-88q-86 0 -86 86v537q0 108 -31 158t-112 50q-127 0 -197 -108q-69 -106 -69 -254v-383 q0 -86 -84 -86h-90q-86 0 -86 86v537q0 107 -30 157.5t-110 50.5q-129 0 -200 -108q-70 -107 -70 -254v-383q0 -86 -84 -86h-90q-84 0 -84 86z" />
<glyph unicode="n" horiz-adv-x="1226" d="M129 86v872q0 86 84 86h80q84 0 84 -86v-63l-4 -47h4q47 95 143 158t228 63q364 0 364 -397v-586q0 -86 -86 -86h-88q-86 0 -86 86v532q0 108 -37.5 160.5t-126.5 52.5q-137 0 -219 -98t-82 -244v-403q0 -86 -84 -86h-90q-84 0 -84 86z" />
<glyph unicode="o" horiz-adv-x="1273" d="M63 522q0 238 166 391q167 156 408 156t407 -156q168 -155 168 -391q0 -238 -168 -393q-168 -154 -407 -154q-240 0 -408 154q-166 156 -166 393zM328 522q0 -144 88 -235q90 -90 221 -90t221 90q90 93 90 235t-92 234q-89 92 -219 92t-219 -92q-90 -93 -90 -234z" />
<glyph unicode="p" horiz-adv-x="1234" d="M129 -324v1282q0 86 86 86h66q41 0 62.5 -19t21.5 -52v-47l-3 -41h5q22 37 47 63q113 121 288 121q211 0 338 -151t127 -396q0 -247 -135 -397t-344 -150q-185 0 -287 138l-14 22h-4q6 -37 6 -90v-369q0 -86 -86 -86h-88q-86 0 -86 86zM381 516q0 -133 70 -227t190 -94 q115 0 188.5 88t73.5 235q0 148 -71 238t-187 90t-190 -86t-74 -244z" />
<glyph unicode="q" horiz-adv-x="1234" d="M68 522q0 245 133 396t344 151q66 0 123 -17t94 -44t59.5 -50t34.5 -45l10 -16h4q-4 20 -4 41v37q0 31 22.5 50t63.5 19h68q84 0 84 -86v-1282q0 -86 -84 -86h-90q-84 0 -84 86v379l4 90h-4q0 -2 -9.5 -18t-34 -42t-59 -50t-93 -41.5t-126.5 -18.5q-201 0 -329 152 q-127 151 -127 395zM330 522q0 -148 71.5 -237.5t188.5 -89.5q115 0 188.5 85.5t73.5 243.5q0 131 -68 226q-69 96 -192 96q-113 0 -187.5 -89t-74.5 -235z" />
<glyph unicode="r" horiz-adv-x="768" d="M129 86v872q0 86 84 86h80q86 0 86 -86v-98l-6 -72h4q35 106 117 185q83 80 186 80q78 0 78 -86v-80q0 -86 -88 -86q-136 0 -209 -113q-74 -112 -74 -266v-336q0 -86 -84 -86h-90q-84 0 -84 86z" />
<glyph unicode="s" horiz-adv-x="915" d="M63 141q0 28 21 58l25 37q26 36 63 36q24 0 53 -16q135 -72 234 -72q67 0 106 28.5t39 78.5q0 77 -184 135q-38 12 -65 22t-64.5 27t-64 34t-55 42.5t-45.5 54t-28.5 67.5t-11.5 83q0 147 113 229q116 84 286 84q154 0 291 -76q43 -21 43 -63q0 -24 -12 -51l-21 -37 q-20 -45 -65 -45q-22 0 -49 12q-111 51 -199 51q-141 0 -141 -102q0 -43 48 -74.5t134 -60.5q52 -15 92 -30.5t89 -43.5t81 -60.5t54 -82.5q21 -48 20 -104v-5q0 -139 -111 -231q-111 -91 -286 -91q-194 0 -349 107q-41 24 -41 59z" />
<glyph unicode="t" horiz-adv-x="745" d="M47 909v35q0 86 86 86h60v213q0 86 86 86h81q86 0 86 -86v-213h152q86 0 86 -86v-35q0 -86 -84 -86h-154v-405q0 -177 168 -195q48 -5 67 -23.5t19 -60.5v-63q0 -86 -106 -86q-163 0 -285 94q-123 95 -123 289v450h-55q-84 0 -84 86z" />
<glyph unicode="u" horiz-adv-x="1216" d="M115 373v585q0 86 86 86h88q86 0 86 -86v-532q0 -108 37 -160.5t125 -52.5q137 0 213 102q79 101 79 250v393q0 86 86 86h89q86 0 86 -86v-872q0 -86 -86 -86h-80q-84 0 -84 86v61l4 48h-4q-43 -92 -143 -156t-220 -64q-362 0 -362 398z" />
<glyph unicode="v" horiz-adv-x="1064" d="M29 985q0 16 10 33q17 26 65 26h97q75 0 96 -71l195 -576l38 -157h5q15 96 36 157l195 576q21 71 96 71h96q49 0 66 -26q12 -15 12 -35q0 -18 -8 -37l-315 -876q-21 -70 -97 -70h-163q-76 0 -97 70l-319 876q-8 19 -8 39z" />
<glyph unicode="w" horiz-adv-x="1658" d="M41 979q0 24 12 39q17 26 64 26h98q77 0 92 -75l168 -611l21 -110h4q12 72 22 110l176 611q15 73 95 73h77q77 0 95 -73l174 -611l22 -110h4q10 62 23 110l166 611q18 75 94 75h94q47 0 64 -26q12 -15 12 -39q0 -11 -4 -31l-268 -876q-21 -72 -97 -72h-137q-78 0 -96 74 l-158 522l-24 113h-5q-6 -39 -26 -113l-158 -522q-18 -74 -94 -74h-141q-74 0 -95 72l-270 876q-4 20 -4 31z" />
<glyph unicode="x" horiz-adv-x="1019" d="M57 51q0 23 19 51l278 426l-270 414q-18 27 -18 51q0 7 4 23q16 28 69 28h105q66 0 100 -61l131 -223l33 -66h4l33 66l131 223q34 61 100 61h105q53 0 69 -28q4 -16 4 -23q0 -24 -18 -51l-268 -414l278 -426q19 -28 19 -49q0 -10 -7 -24q-19 -29 -69 -29h-98 q-66 0 -101 59l-149 244l-29 55h-4q-16 -37 -29 -55l-147 -244q-35 -59 -101 -59h-100q-54 0 -70 29q-4 16 -4 22z" />
<glyph unicode="y" horiz-adv-x="1052" d="M12 987q0 18 8 29q19 28 68 28h111q73 0 96 -69l197 -533l38 -141h5q13 58 34 137l185 535q21 71 96 71h102q48 0 68 -26q10 -17 10 -35t-8 -37l-430 -1102q-50 -133 -150.5 -203.5t-226.5 -70.5q-63 0 -145 31q-38 15 -47 45q-5 15 -5 22q0 20 13 43l18 45q21 49 70 49 q14 0 22 -2q41 -18 74 -18q52 0 96 38.5t70 100.5l39 92l-397 928q-11 29 -11 43z" />
<glyph unicode="z" horiz-adv-x="1044" d="M57 70v20q0 50 37 96l432 541l88 96v4q-36 -4 -96 -4h-354q-86 0 -86 86v49q0 86 86 86h717q86 0 86 -69v-21q0 -50 -37 -96l-432 -543q-21 -27 -43 -49l-35 -37l-12 -10v-4q30 6 98 6h389q86 0 86 -86v-49q0 -86 -86 -86h-752q-86 0 -86 70z" />
<glyph unicode="{" horiz-adv-x="702" d="M49 631v80q0 33 14 51t54 45q106 46 106 194v175q0 102 34 176.5t91 107.5q101 64 189 64h26q86 0 86 -86v-31q0 -84 -86 -84q-119 0 -119 -174v-215q0 -171 -139 -248l-29 -12v-4q21 -5 58 -31q45 -28 77.5 -85t32.5 -142v-240q0 -172 119 -172q86 0 86 -86v-31 q0 -86 -86 -86h-26q-88 0 -189 64q-57 33 -91 108t-34 176v199q0 135 -104 193q-39 21 -54.5 40.5t-15.5 53.5z" />
<glyph unicode="|" horiz-adv-x="514" d="M145 -246v1790q0 86 86 86h52q86 0 86 -86v-1790q0 -84 -86 -84h-52q-86 0 -86 84z" />
<glyph unicode="}" horiz-adv-x="704" d="M53 -86q0 86 86 86q119 0 119 172v240q0 175 137 245l31 13v4q-14 4 -59 33q-109 78 -109 227v215q0 174 -119 174q-86 0 -86 84v31q0 86 86 86h27q87 0 188 -64q57 -33 91 -107.5t34 -176.5v-175q0 -148 107 -194q43 -29 53 -43q14 -19 14 -53v-80q0 -34 -15 -53.5 t-54 -40.5q-105 -59 -105 -193v-199q0 -101 -34 -176t-91 -108q-101 -64 -188 -64h-27q-86 0 -86 86v31z" />
<glyph unicode="~" horiz-adv-x="1214" d="M104 514q43 266 306 266q65 0 123.5 -27.5t91.5 -66.5q84 -92 161 -92q81 0 115 100q18 43 37 60.5t53 17.5h41q43 0 65.5 -24t16.5 -66q-38 -283 -307 -283q-65 0 -122 27t-93 66q-84 92 -164 92q-84 0 -111 -101q-19 -42 -38.5 -58.5t-53.5 -16.5h-41q-44 0 -65.5 28 t-14.5 78z" />
<glyph unicode="&#xa2;" horiz-adv-x="1153" d="M86 727q0 221 119 383q118 160 313 195v86q0 86 82 86h14q82 0 82 -68v-104q109 -18 207 -91q98 -70 146 -161q40 -75 -45 -111l-78 -31q-21 -8 -37 -9t-29.5 6.5t-23 16t-23.5 25.5q-77 115 -195 115q-121 0 -195.5 -94t-74.5 -248q0 -151 72.5 -242.5t195.5 -91.5 q120 0 197 115q51 62 113 41l78 -31q83 -35 45 -113q-46 -88 -146 -165q-96 -75 -207 -84v-93q0 -84 -82 -84h-14q-82 0 -82 84v93q-194 35 -313 192q-119 162 -119 383z" />
<glyph unicode="&#xa3;" horiz-adv-x="1210" d="M106 86v57q0 84 84 84h43v410h-34q-78 0 -78 82v12q0 84 78 84h34v248q0 182 132 299t333 117q157 0 299 -95q69 -48 11 -118l-39 -52q-46 -57 -121 -16q-74 41 -143 41q-90 0 -146.5 -52t-56.5 -132v-240h276q84 0 84 -84v-12q0 -82 -84 -82h-276v-410h551q86 0 86 -84 v-57q0 -86 -86 -86h-863q-84 0 -84 86z" />
<glyph unicode="&#xa5;" horiz-adv-x="1228" d="M78.5 1425.5q17.5 28.5 66.5 28.5h119q72 0 96 -68l166 -321l88 -234h4q31 92 89 234l163 321q24 68 97 68h116q51 0 69 -28.5t-5 -71.5l-266 -494h116q84 0 84 -72v-12q0 -71 -84 -71h-196l-51 -99v-67h247q84 0 84 -72v-12q0 -74 -84 -74h-247v-295q0 -86 -86 -86h-99 q-84 0 -84 86v295h-250q-84 0 -84 74v12q0 72 84 72h250v67l-53 99h-197q-84 0 -84 71v12q0 72 74 72h127l-264 494q-23 43 -5.5 71.5z" />
<glyph unicode="&#xa8;" horiz-adv-x="1009" d="M217 1677v68q0 84 86 84h29q86 0 86 -84v-68q0 -86 -86 -86h-29q-86 0 -86 86zM594 1677v68q0 84 84 84h31q84 0 84 -84v-68q0 -86 -84 -86h-31q-84 0 -84 86z" />
<glyph unicode="&#xa9;" horiz-adv-x="1654" d="M92 727q0 311 213 530q217 220 520 220q304 0 521 -220q217 -217 217 -530q0 -312 -217 -532t-521 -220q-303 0 -520 220q-213 222 -213 532zM274 727q0 -244 158 -416q159 -170 393 -170q235 0 394 170q161 167 161 416q0 247 -161 414q-159 170 -394 170 q-234 0 -393 -170q-158 -172 -158 -414zM451 723q0 166 108 283q110 116 281 116q96 0 172 -43q73 -42 112 -96q38 -53 -8 -90l-31 -27q-25 -18 -52 -12t-48 31q-61 67 -141 67q-92 0 -148.5 -65t-56.5 -168q0 -99 55 -162t150 -63q93 0 151 73q46 49 90 13l29 -25 q49 -40 8 -94q-110 -137 -282 -137q-174 0 -281 116q-108 117 -108 283z" />
<glyph unicode="&#xab;" horiz-adv-x="1134" d="M100 518q-50 60 0 119l248 313q43 49 105 49h51q54 0 68 -30.5t-19 -73.5l-252 -317l252 -316q35 -43 22.5 -73.5t-63.5 -30.5h-59q-62 0 -105 49zM561 518q-50 60 0 119l248 313q43 49 104 49h50q55 0 69.5 -30.5t-20.5 -73.5l-252 -317l252 -316q35 -43 23.5 -73.5 t-62.5 -30.5h-60q-61 0 -104 49z" />
<glyph unicode="&#xad;" horiz-adv-x="854" d="M119 557v57q0 84 86 84h444q86 0 86 -84v-57q0 -86 -86 -86h-444q-86 0 -86 86z" />
<glyph unicode="&#xae;" horiz-adv-x="1654" d="M92 727q0 311 213 530q217 220 518 220q308 0 525 -220q215 -218 215 -530q0 -311 -215 -532q-217 -220 -525 -220q-301 0 -518 220q-213 222 -213 532zM274 727q0 -244 158 -416q159 -170 391 -170q237 0 396 170q161 167 161 416q0 247 -161 414q-159 170 -396 170 q-232 0 -391 -170q-158 -172 -158 -414zM567 442v578q0 86 86 86h226q112 0 178.5 -64.5t66.5 -173.5q0 -75 -39.5 -128t-91.5 -66v-4q10 -10 27 -43l88 -170q23 -44 10.5 -72.5t-53.5 -28.5h-27q-71 0 -98 64l-98 213h-101v-191q0 -86 -79 -86h-15q-80 0 -80 86zM741 756 h97q51 0 79.5 29t28.5 83q0 111 -104 111h-101v-223z" />
<glyph unicode="&#xb4;" horiz-adv-x="1009" d="M336 1578q-15 28 8 69l72 122q35 60 100 60h74q55 0 68 -31t-23 -72l-92 -124q-43 -52 -105 -52h-43q-44 0 -59 28z" />
<glyph unicode="&#xb8;" horiz-adv-x="1009" d="M340 -356q0 32 12 51.5t31 19.5q7 0 27 -3t24 -3q76 0 76 60q0 50 -92 59q-46 3 -31 63l41 150h129l-29 -131q69 -8 109.5 -48t40.5 -108q0 -90 -61 -135t-160 -45q-117 0 -117 70z" />
<glyph unicode="&#xbb;" horiz-adv-x="1134" d="M98.5 968.5q12.5 30.5 63.5 30.5h59q62 0 105 -49l247 -313q50 -59 0 -119l-247 -311q-43 -49 -105 -49h-51q-54 0 -68 30.5t19 73.5l252 316l-252 317q-35 43 -22.5 73.5zM559.5 968.5q12.5 30.5 63.5 30.5h59q61 0 104 -49l246 -313q50 -59 0 -119l-246 -311 q-43 -49 -104 -49h-51q-55 0 -69.5 30.5t20.5 73.5l252 316l-252 317q-35 43 -22.5 73.5z" />
<glyph unicode="&#xc2;" horiz-adv-x="1298" d="M33 98l454 1286q24 70 97 70h131q75 0 96 -70l455 -1286q17 -44 -2.5 -71t-67.5 -27h-94q-75 0 -96 70l-103 303h-510l-100 -301q-21 -72 -96 -72h-95q-48 0 -67 27t-2 71zM381 1580.5q-11 30.5 18 74.5l82 119q37 55 105 55h127q67 0 104 -55l82 -119q29 -44 18 -74.5 t-55 -30.5h-53q-33 0 -50.5 12.5t-39.5 47.5l-68 106h-4l-69 -106q-35 -60 -89 -60h-53q-44 0 -55 30.5zM459 588h379l-129 389l-58 225h-4q-39 -165 -57 -225z" />
<glyph unicode="&#xc7;" horiz-adv-x="1445" d="M84 733q0 322 211 533q213 213 539 213q267 0 475 -146q63 -48 16 -119l-37 -59q-40 -67 -117 -20q-159 102 -327 102q-229 0 -359 -145q-129 -144 -129 -355q0 -216 131 -368q134 -152 359 -152q179 0 356 127q72 54 119 -14l41 -56q50 -65 -12 -118 q-206 -167 -478 -179l-14 -67q69 -8 109.5 -48t40.5 -108q0 -90 -61.5 -135t-160.5 -45q-116 0 -116 70q0 32 12 51.5t31 19.5q5 0 24 -3t27 -3q76 0 76 60q0 50 -92 59q-46 3 -31 63l24 89q-297 30 -479 239q-178 211 -178 514z" />
<glyph unicode="&#xce;" horiz-adv-x="598" d="M33 1580.5q-11 30.5 18 74.5l82 119q37 55 105 55h127q67 0 104 -55l82 -119q29 -44 18 -74.5t-55 -30.5h-53q-33 0 -50.5 12.5t-39.5 47.5l-68 106h-4l-70 -106q-35 -60 -88 -60h-53q-44 0 -55 30.5zM168 86v1282q0 86 84 86h94q84 0 84 -86v-1282q0 -86 -84 -86h-94 q-84 0 -84 86z" />
<glyph unicode="&#xd6;" horiz-adv-x="1667" d="M82 737q0 318 211 529q213 213 541 213q325 0 538 -213t213 -529q0 -323 -213 -542q-214 -220 -538 -220q-327 0 -541 220q-211 217 -211 542zM354 737q0 -222 135 -372q139 -148 345 -148t342 148q137 149 137 372q0 214 -137 357q-134 143 -342 143t-345 -143 q-135 -144 -135 -357zM545 1677v68q0 84 86 84h28q86 0 86 -84v-68q0 -86 -86 -86h-28q-86 0 -86 86zM922 1677v68q0 84 84 84h30q84 0 84 -84v-68q0 -86 -84 -86h-30q-84 0 -84 86z" />
<glyph unicode="&#xdb;" horiz-adv-x="1472" d="M152 522v846q0 86 84 86h92q86 0 86 -86v-844q0 -145 86 -226t235 -81t236.5 81t87.5 226v844q0 86 84 86h94q84 0 84 -86v-846q0 -246 -162 -395q-161 -152 -422 -152q-263 0 -426 150q-159 150 -159 397zM467 1580.5q-11 30.5 18 74.5l82 119q37 55 105 55h127 q67 0 104 -55l82 -119q29 -44 18 -74.5t-55 -30.5h-53q-33 0 -50.5 12.5t-39.5 47.5l-68 106h-4l-69 -106q-35 -60 -89 -60h-53q-44 0 -55 30.5z" />
<glyph unicode="&#xdc;" horiz-adv-x="1472" d="M152 522v846q0 86 84 86h92q86 0 86 -86v-844q0 -145 86 -226t235 -81t236.5 81t87.5 226v844q0 86 84 86h94q84 0 84 -86v-846q0 -246 -162 -395q-161 -152 -422 -152q-263 0 -426 150q-159 150 -159 397zM449 1677v68q0 84 86 84h28q86 0 86 -84v-68q0 -86 -86 -86h-28 q-86 0 -86 86zM825 1677v68q0 84 84 84h31q84 0 84 -84v-68q0 -86 -84 -86h-31q-84 0 -84 86z" />
<glyph unicode="&#xe2;" horiz-adv-x="1075" d="M49 289q0 106 59 181.5t160 111.5q178 63 391 63h43v25q0 184 -194 184q-105 0 -217 -59q-81 -35 -115 34l-20 39q-39 74 32 115q170 86 342 86q203 0 318 -110t115 -306v-567q0 -86 -86 -86h-70q-84 0 -84 86v41l4 45h-4q-24 -40 -49 -70q-113 -127 -279 -127 q-142 0 -245 86q-101 88 -101 228zM269 1206q-11 30 18 74l82 119q37 55 104 55h127q68 0 105 -55l81 -119q29 -44 18.5 -74t-54.5 -30h-54q-34 0 -51 12.5t-39 46.5l-67 106h-4l-70 -106q-35 -59 -88 -59h-53q-44 0 -55 30zM307 311q0 -57 43.5 -97t114.5 -40q104 0 172 86 t68 189v38h-43q-355 0 -355 -176z" />
<glyph unicode="&#xe7;" horiz-adv-x="1091" d="M66 522q0 232 155 387q157 160 412 160q193 0 342 -104q63 -43 16 -117l-26 -41q-41 -59 -115 -23q-94 64 -203 64q-141 0 -229 -94q-88 -91 -88 -230q0 -137 90 -233q88 -94 235 -94q121 0 234 79q77 44 117 -26l20 -39q41 -71 -22 -115q-147 -110 -340 -119l-15 -67 q69 -8 109.5 -48t40.5 -108q0 -90 -61 -135t-160 -45q-117 0 -117 70q0 32 12 51.5t31 19.5q5 0 24.5 -3t26.5 -3q76 0 76 60q0 50 -92 59q-46 3 -31 63l24 93q-213 30 -339 180q-127 151 -127 358z" />
<glyph unicode="&#xee;" horiz-adv-x="516" d="M-8 1206q-11 30 18 74l82 119q37 55 105 55h127q67 0 104 -55l82 -119q29 -44 18 -74t-55 -30h-53q-34 0 -51 12.5t-39 46.5l-68 106h-4l-70 -106q-35 -59 -88 -59h-53q-44 0 -55 30zM129 86v872q0 86 84 86h90q84 0 84 -86v-872q0 -86 -84 -86h-90q-84 0 -84 86z" />
<glyph unicode="&#xf6;" horiz-adv-x="1273" d="M63 522q0 238 166 391q167 156 408 156t407 -156q168 -155 168 -391q0 -238 -168 -393q-168 -154 -407 -154q-240 0 -408 154q-166 156 -166 393zM328 522q0 -144 88 -235q90 -90 221 -90t221 90q90 93 90 235t-92 234q-89 92 -219 92t-219 -92q-90 -93 -90 -234z M348 1303v67q0 84 86 84h29q86 0 86 -84v-67q0 -86 -86 -86h-29q-86 0 -86 86zM725 1303v67q0 84 84 84h31q84 0 84 -84v-67q0 -86 -84 -86h-31q-84 0 -84 86z" />
<glyph unicode="&#xfb;" horiz-adv-x="1216" d="M115 373v585q0 86 86 86h88q86 0 86 -86v-532q0 -108 37 -160.5t125 -52.5q137 0 213 102q79 101 79 250v393q0 86 86 86h89q86 0 86 -86v-872q0 -86 -86 -86h-80q-84 0 -84 86v61l4 48h-4q-43 -92 -143 -156t-220 -64q-362 0 -362 398zM334 1206q-11 30 18 74l82 119 q37 55 105 55h127q67 0 104 -55l82 -119q29 -44 18 -74t-55 -30h-53q-34 0 -51 12.5t-39 46.5l-68 106h-4l-70 -106q-35 -59 -88 -59h-53q-44 0 -55 30z" />
<glyph unicode="&#xfc;" horiz-adv-x="1216" d="M115 373v585q0 86 86 86h88q86 0 86 -86v-532q0 -108 37 -160.5t125 -52.5q137 0 213 102q79 101 79 250v393q0 86 86 86h89q86 0 86 -86v-872q0 -86 -86 -86h-80q-84 0 -84 86v61l4 48h-4q-43 -92 -143 -156t-220 -64q-362 0 -362 398zM313 1303v67q0 84 86 84h29 q86 0 86 -84v-67q0 -86 -86 -86h-29q-86 0 -86 86zM690 1303v67q0 84 84 84h31q84 0 84 -84v-67q0 -86 -84 -86h-31q-84 0 -84 86z" />
<glyph unicode="&#x11e;" horiz-adv-x="1544" d="M82 721q0 325 213 541q211 217 539 217q146 0 271.5 -39.5t203.5 -93.5q64 -49 18 -119l-37 -58q-44 -65 -119 -22q-159 90 -323 90q-230 0 -363 -145q-131 -143 -131 -359q0 -225 140 -371q142 -145 346 -145q211 0 350 139l18 21v162h-139q-86 0 -86 86v55q0 86 86 86 h291q84 0 84 -86v-594q0 -86 -84 -86h-51q-84 0 -84 70v34l2 35h-4l-19 -16q-16 -16 -55.5 -43.5t-81.5 -48.5q-49 -23 -123 -39.5t-147 -16.5q-297 0 -506 209q-209 212 -209 537zM510 1778q0 51 72 51h39q61 0 73 -57q18 -89 117 -89q97 0 115 89q18 57 73 57h39 q74 0 74 -51q0 -102 -92 -170q-94 -66 -209 -66q-112 0 -209 66q-92 68 -92 170z" />
<glyph unicode="&#x11f;" horiz-adv-x="1218" d="M70 551q0 227 123 371q123 147 348 147q68 0 125 -16t91.5 -40t55 -46t29.5 -41l8 -17h4q-2 6 -2 27v39q0 32 22 50.5t62 18.5h70q84 0 84 -86v-895q0 -248 -162 -370q-159 -123 -379 -123q-177 0 -305 55q-79 36 -45 111l16 47q34 70 109 47q101 -39 211 -39 q136 0 215 64t79 190v78l5 53h-5q-89 -156 -286 -156q-220 0 -348 152q-125 149 -125 379zM293 1403q0 51 72 51h38q62 0 74 -57q18 -88 117 -88q97 0 115 88q18 57 73 57h39q74 0 74 -51q0 -102 -92 -170q-94 -66 -209 -66q-112 0 -209 66q-92 68 -92 170zM332 561 q0 -147 70 -234t192 -87q110 0 176 75.5t66 229.5q0 303 -254 303q-117 0 -183.5 -77.5t-66.5 -209.5z" />
<glyph unicode="&#x130;" horiz-adv-x="598" d="M168 86v1282q0 86 84 86h94q84 0 84 -86v-1282q0 -86 -84 -86h-94q-84 0 -84 86zM190 1688v57q0 84 84 84h54q84 0 84 -84v-57q0 -86 -84 -86h-54q-84 0 -84 86z" />
<glyph unicode="&#x131;" horiz-adv-x="516" d="M129 86v872q0 86 84 86h90q84 0 84 -86v-872q0 -86 -84 -86h-90q-84 0 -84 86z" />
<glyph unicode="&#x15e;" horiz-adv-x="1126" d="M102 1057q0 186 140 305q138 117 350 117q109 0 210.5 -32.5t164.5 -78.5q66 -48 26 -117l-37 -67q-38 -72 -116 -29q-139 80 -252 80q-102 0 -162 -45q-59 -47 -59 -119q0 -76 69 -127q41 -32 100.5 -61t141 -63.5t127.5 -57.5q107 -51 173 -142t66 -214 q0 -171 -112 -289q-110 -119 -305 -137l-15 -70q69 -8 109.5 -48t40.5 -108q0 -90 -61 -135t-160 -45q-117 0 -117 70q0 32 12 51.5t31 19.5q5 0 24.5 -3t26.5 -3q76 0 76 60q0 50 -92 59q-46 3 -31 63l23 89q-223 22 -377 143q-63 54 -13 119l46 65q43 58 118 19 q152 -107 295 -107q99 0 158 46t59 120q0 44 -23 80.5t-62.5 63.5t-90.5 52t-107 49t-112 51t-107 62.5t-90.5 78t-62.5 103t-23 132.5z" />
<glyph unicode="&#x15f;" horiz-adv-x="919" d="M84 199l25 37q44 60 116 20q135 -72 234 -72q67 0 106 28.5t39 78.5q0 77 -184 135q-38 12 -65 22t-64.5 27t-64 34t-55 42.5t-45.5 54t-28.5 67.5t-11.5 83q0 147 113 229q116 84 286 84q154 0 291 -76q68 -35 31 -114l-21 -37q-34 -68 -114 -33q-111 51 -199 51 q-141 0 -141 -102q0 -43 48 -74.5t134 -60.5q52 -15 92 -30.5t89 -43.5t81 -60.5t53.5 -82.5t20.5 -109q0 -130 -93.5 -218.5t-250.5 -101.5l-14 -67q69 -8 109 -48t40 -108q0 -90 -61 -135t-160 -45q-117 0 -117 70q0 32 12 51.5t31 19.5q8 0 27 -3t24 -3q76 0 76 60 q0 50 -92 59q-46 3 -31 63l25 91q-147 15 -271 100q-72 41 -20 117z" />
<glyph unicode="&#x2c6;" horiz-adv-x="1011" d="M238 1580.5q-11 30.5 18 74.5l82 119q37 55 104 55h127q68 0 105 -55l82 -119q29 -44 18 -74.5t-55 -30.5h-53q-34 0 -51.5 13t-39.5 47l-67 106h-4l-70 -106q-35 -60 -88 -60h-53q-44 0 -55 30.5z" />
<glyph unicode="&#x2da;" horiz-adv-x="1011" d="M311 1686q0 73 56.5 117t138.5 44q81 0 136.5 -44t55.5 -117q0 -72 -56 -116t-136 -44q-82 0 -138.5 44t-56.5 116zM436 1686q0 -31 19 -50.5t51 -19.5q31 0 50 19.5t19 50.5q0 44 -34.5 62.5t-69.5 0t-35 -62.5z" />
<glyph unicode="&#x2dc;" horiz-adv-x="1009" d="M141 1630q0 86 58.5 144.5t148.5 58.5q46 0 91 -21t74.5 -45.5t61.5 -45.5t54 -21q65 0 71 80q3 47 74 47h21q75 0 75 -70q0 -94 -57 -152.5t-149 -58.5q-46 0 -91.5 21t-74.5 45.5t-60.5 45.5t-54.5 21q-69 0 -78 -82q-6 -45 -69 -45h-21q-74 0 -74 78z" />
<glyph unicode="&#x2000;" horiz-adv-x="923" />
<glyph unicode="&#x2001;" horiz-adv-x="1847" />
<glyph unicode="&#x2002;" horiz-adv-x="923" />
<glyph unicode="&#x2003;" horiz-adv-x="1847" />
<glyph unicode="&#x2004;" horiz-adv-x="615" />
<glyph unicode="&#x2005;" horiz-adv-x="461" />
<glyph unicode="&#x2006;" horiz-adv-x="307" />
<glyph unicode="&#x2007;" horiz-adv-x="307" />
<glyph unicode="&#x2008;" horiz-adv-x="230" />
<glyph unicode="&#x2009;" horiz-adv-x="369" />
<glyph unicode="&#x200a;" horiz-adv-x="102" />
<glyph unicode="&#x2010;" horiz-adv-x="854" d="M119 557v57q0 84 86 84h444q86 0 86 -84v-57q0 -86 -86 -86h-444q-86 0 -86 86z" />
<glyph unicode="&#x2011;" horiz-adv-x="854" d="M119 557v57q0 84 86 84h444q86 0 86 -84v-57q0 -86 -86 -86h-444q-86 0 -86 86z" />
<glyph unicode="&#x2012;" horiz-adv-x="854" d="M119 557v57q0 84 86 84h444q86 0 86 -84v-57q0 -86 -86 -86h-444q-86 0 -86 86z" />
<glyph unicode="&#x2013;" horiz-adv-x="1374" d="M121 569v31q0 86 84 86h964q84 0 84 -86v-31q0 -86 -84 -86h-964q-84 0 -84 86z" />
<glyph unicode="&#x2014;" horiz-adv-x="1783" d="M121 569v31q0 86 84 86h1374q84 0 84 -86v-31q0 -86 -84 -86h-1374q-84 0 -84 86z" />
<glyph unicode="&#x2018;" horiz-adv-x="444" d="M82 1100l102 311q27 68 99 68h20q91 0 70 -93l-70 -307q-15 -75 -92 -75h-59q-48 0 -67.5 26t-2.5 70z" />
<glyph unicode="&#x2019;" horiz-adv-x="440" d="M86 1096l70 307q15 76 92 76h57q47 0 66.5 -26.5t5.5 -70.5l-105 -311q-24 -67 -96 -67h-20q-91 0 -70 92z" />
<glyph unicode="&#x201a;" horiz-adv-x="473" d="M68 -119l69 307q15 76 92 76h60q48 0 67 -27t2 -71l-102 -309q-27 -68 -98 -68h-21q-90 0 -69 92z" />
<glyph unicode="&#x201c;" horiz-adv-x="786" d="M82 1100l102 311q27 68 99 68h22q85 0 70 -93l-70 -307q-18 -75 -92 -75h-61q-48 0 -67.5 26t-2.5 70zM424 1100l102 311q27 68 99 68h22q89 0 68 -93l-68 -307q-18 -75 -94 -75h-59q-48 0 -67.5 26t-2.5 70z" />
<glyph unicode="&#x201d;" horiz-adv-x="782" d="M86 1096l70 307q15 76 92 76h59q48 0 67.5 -26.5t2.5 -70.5l-103 -311q-24 -67 -98 -67h-20q-91 0 -70 92zM428 1096l70 307q15 76 92 76h59q48 0 67.5 -26.5t2.5 -70.5l-103 -311q-24 -67 -98 -67h-20q-91 0 -70 92z" />
<glyph unicode="&#x201e;" horiz-adv-x="815" d="M68 -119l69 307q15 76 92 76h60q48 0 67 -27t2 -71l-102 -309q-21 -68 -96 -68h-23q-90 0 -69 92zM410 -119l69 307q15 76 92 76h60q48 0 67 -27t2 -71l-102 -309q-21 -68 -96 -68h-23q-90 0 -69 92z" />
<glyph unicode="&#x2026;" horiz-adv-x="1644" d="M113 86v92q0 84 86 84h82q86 0 86 -84v-92q0 -86 -86 -86h-82q-86 0 -86 86zM696 86v92q0 84 84 84h84q86 0 86 -84v-92q0 -86 -86 -86h-84q-84 0 -84 86zM1280 86v92q0 84 84 84h84q84 0 84 -84v-92q0 -86 -84 -86h-84q-84 0 -84 86z" />
<glyph unicode="&#x202f;" horiz-adv-x="369" />
<glyph unicode="&#x2039;" horiz-adv-x="673" d="M100 518q-50 60 0 119l248 313q43 49 105 49h51q54 0 68 -30.5t-19 -73.5l-252 -317l252 -316q35 -43 22.5 -73.5t-63.5 -30.5h-59q-62 0 -105 49z" />
<glyph unicode="&#x203a;" horiz-adv-x="673" d="M98.5 968.5q12.5 30.5 63.5 30.5h59q62 0 105 -49l247 -313q50 -59 0 -119l-247 -311q-43 -49 -105 -49h-51q-54 0 -68 30.5t19 73.5l252 316l-252 317q-35 43 -22.5 73.5z" />
<glyph unicode="&#x205f;" horiz-adv-x="461" />
<glyph unicode="&#x20ac;" horiz-adv-x="1234" d="M76 590q0 78 78 78h36q-10 59 -2 127h-32q-80 0 -80 79q0 78 80 78h61q68 235 258 379q195 148 443 148q26 0 131 -11q86 -12 65 -102l-20 -76q-20 -74 -86 -65q-44 8 -97 8q-146 0 -255 -75t-156 -206h426q95 0 80 -80q-7 -42 -29.5 -59.5t-65.5 -17.5h-448 q-9 -62 0 -127h407q95 0 80 -80q-11 -43 -31 -59.5t-63 -16.5h-346q50 -131 161 -209t251 -78q54 0 106 8q86 12 98 -63l17 -78q15 -85 -66 -100q-87 -17 -159 -17q-260 0 -449 148q-188 147 -252 389h-63q-78 0 -78 78z" />
<glyph unicode="&#x2122;" horiz-adv-x="2000" d="M80 1362v12q0 80 84 80h631q86 0 86 -80v-12q0 -80 -86 -80h-217v-651q0 -84 -84 -84h-25q-86 0 -86 84v651h-219q-84 0 -84 80zM942 635l59 737q6 82 89 82h28q72 0 99 -65l159 -363l27 -86h4q16 56 29 86l159 363q27 65 99 65h28q82 0 88 -82l58 -737q3 -88 -82 -88 h-27q-80 0 -86 82l-28 385l2 63h-5l-133 -299q-27 -65 -98 -65h-12q-69 0 -96 65l-134 299h-4l2 -63l-30 -385q-6 -82 -88 -82h-25q-88 0 -82 88z" />
<glyph unicode="&#x25fc;" horiz-adv-x="1044" d="M0 0v1044h1044v-1044h-1044z" />
</font>
</defs>
</svg>
