<?xml version="1.0" standalone="no"?>
<!DOCTYPE svg PUBLIC "-//W3C//DTD SVG 1.1//EN" "http://www.w3.org/Graphics/SVG/1.1/DTD/svg11.dtd" >
<svg xmlns="http://www.w3.org/2000/svg" xmlns:xlink="http://www.w3.org/1999/xlink" version="1.1">
<metadata></metadata>
<defs>
<font id="museo_sans_rounded500" horiz-adv-x="1212" >
<font-face units-per-em="2048" ascent="1536" descent="-512" />
<missing-glyph horiz-adv-x="512" />
<glyph horiz-adv-x="0" />
<glyph horiz-adv-x="682" />
<glyph unicode=" "  horiz-adv-x="512" />
<glyph unicode="&#x09;" horiz-adv-x="512" />
<glyph unicode="&#xa0;" horiz-adv-x="512" />
<glyph unicode="!" horiz-adv-x="530" d="M164 68v65q0 68 67 68h70q68 0 68 -68v-65q0 -68 -68 -68h-70q-67 0 -67 68zM164 1378q0 68 65 68h70q68 0 68 -68l-11 -913q-3 -68 -69 -68h-45q-68 0 -68 68z" />
<glyph unicode="&#x22;" horiz-adv-x="673" d="M115 1104v299q0 67 67 67h21q67 0 67 -67v-299q0 -68 -67 -68h-21q-67 0 -67 68zM403 1104v299q0 67 68 67h21q67 0 67 -67v-299q0 -68 -67 -68h-21q-68 0 -68 68z" />
<glyph unicode="#" horiz-adv-x="1437" d="M82 463l4 18q9 62 74 62h205l59 344h-191q-72 0 -63 71l4 19q9 59 72 59h205l59 350q12 60 74 60h30q74 0 62 -72l-60 -338h318l59 350q12 60 76 60h29q73 0 61 -72l-59 -338h192q73 0 64 -71l-4 -19q-9 -59 -72 -59h-205l-61 -344h190q73 0 64 -74l-4 -16 q-9 -62 -74 -62h-203l-55 -330q-12 -61 -76 -61h-29q-73 0 -61 72l55 319h-317l-58 -330q-9 -61 -73 -61h-29q-73 0 -61 72l55 319h-193q-72 0 -63 72zM530 543h318l61 344h-319z" />
<glyph unicode="$" horiz-adv-x="1097" d="M102 1067q0 149 105 260q104 113 274 137v125q0 68 66 68h16q64 0 64 -60v-131q164 -9 303 -104q49 -29 18 -92l-26 -51q-35 -59 -95 -19q-125 82 -260 82q-112 0 -187 -61.5t-75 -149.5q0 -46 24.5 -84t65.5 -66t94 -53.5t112 -50t117.5 -52t111.5 -63.5t94 -79 t65.5 -104.5t24.5 -135.5q0 -156 -105 -270q-103 -112 -282 -133v-121q0 -68 -64 -68h-16q-66 0 -66 59v130q-197 18 -354 143q-54 41 -10 94l33 47q38 52 96 12q147 -112 313 -112q108 0 180 58.5t72 154.5q0 143 -250 246q-185 77 -267 131q-195 128 -192 313z" />
<glyph unicode="%" horiz-adv-x="1546" d="M90 1167q0 123 90 213q93 90 221 90q127 0 220 -90q92 -89 92 -213q0 -126 -92 -215q-91 -88 -220 -88q-130 0 -221 88q-90 90 -90 215zM172 25q-12 25 14 57l1012 1325q29 39 82 39h37q43 0 55 -25t-14 -57l-1012 -1323q-35 -41 -82 -41h-37q-43 0 -55 25zM250 1167 q0 -66 42.5 -108.5t108.5 -42.5q47 -3 85 25t55 68.5t9.5 87.5t-42.5 79q-30 35 -77 42t-87.5 -10t-69 -55.5t-24.5 -85.5zM834 279q0 123 90 213t219 90t219 -90q92 -89 92 -213q0 -127 -92 -216q-88 -88 -219 -88t-219 88q-90 90 -90 216zM995 308q-7 -47 9.5 -87.5 t54 -68.5t84.5 -25q66 0 108.5 43t42.5 109q3 47 -25.5 85.5t-69 55t-87 9.5t-76.5 -42q-34 -32 -41 -79z" />
<glyph unicode="&#x26;" horiz-adv-x="1318" d="M92 406q0 125 70 228.5t186 141.5v4q-16 3 -67 39q-125 94 -125 279q0 175 123 274q125 98 321 98h94q68 0 68 -67v-37q0 -68 -68 -68h-84q-112 0 -181 -61t-69 -160q0 -85 60 -157q58 -70 207 -70h268v129q0 68 68 68h63q68 0 68 -58v-139h125q67 0 67 -68v-41 q0 -67 -67 -67h-125v-193q0 -238 -133 -372t-367 -134q-225 0 -363 123q-139 124 -139 308zM299 416q0 -107 83 -180.5t212 -73.5q145 0 223 82t78 245v185h-277q-153 0 -236 -67.5t-83 -190.5z" />
<glyph unicode="'" horiz-adv-x="385" d="M113 1151v252q0 67 67 67h25q65 0 65 -67v-252q0 -66 -65 -66h-25q-67 0 -67 66z" />
<glyph unicode="(" horiz-adv-x="563" d="M100 696q0 405 211 764q23 45 80 45h31q39 0 52 -21.5t-5 -56.5q-188 -361 -188 -733q0 -428 192 -809q17 -35 4 -57.5t-51 -22.5h-35q-55 0 -76 41q-215 388 -215 850z" />
<glyph unicode=")" horiz-adv-x="563" d="M85 -171.5q-13 23.5 5 60.5q189 381 189 805q0 380 -187 733q-19 35 -7 56.5t50 21.5h35q57 0 80 -45q209 -361 209 -764q0 -464 -209 -846q-23 -45 -82 -45h-31q-39 0 -52 23.5z" />
<glyph unicode="*" horiz-adv-x="968" d="M98 1151l13 39q21 71 84 43l208 -78l-8 221q-6 70 64 70h47q69 0 63 -68l-10 -223l209 76q65 27 86 -39l14 -39q18 -67 -45 -82l-215 -61v-4l135 -172q48 -55 -10 -95l-33 -24q-59 -41 -92 16l-123 184h-4l-121 -180q-39 -60 -94 -20l-35 24q-56 41 -10 92l135 175v4 l-211 59q-69 15 -47 82z" />
<glyph unicode="+" horiz-adv-x="1255" d="M86 571v25q0 68 68 68h391v436q0 67 67 67h33q68 0 68 -67v-436h389q67 0 67 -68v-25q0 -67 -67 -67h-389v-436q0 -68 -68 -68h-33q-67 0 -67 68v436h-391q-68 0 -68 67z" />
<glyph unicode="," horiz-adv-x="485" d="M51 -178l107 336q15 57 75 57h64q38 0 52.5 -21.5t0.5 -56.5l-139 -340q-20 -51 -80 -51h-22q-79 0 -58 76z" />
<glyph unicode="-" horiz-adv-x="860" d="M131 563v41q0 68 68 68h463q67 0 67 -68v-41q0 -67 -67 -67h-463q-68 0 -68 67z" />
<glyph unicode="." horiz-adv-x="466" d="M127 68v79q0 68 68 68h77q68 0 68 -68v-79q0 -68 -68 -68h-77q-68 0 -68 68z" />
<glyph unicode="/" horiz-adv-x="808" d="M82 -10l477 1478q18 56 78 56h37q35 0 51 -22t4 -54l-477 -1479q-21 -55 -78 -55h-37q-36 0 -51.5 21.5t-3.5 54.5z" />
<glyph unicode="0" horiz-adv-x="1273" d="M125 725q0 326 111 526q58 105 160.5 162t240.5 57q512 0 512 -745q0 -750 -512 -750q-113 0 -201 38t-146 104.5t-95.5 162.5t-53.5 205.5t-16 239.5zM334 725q0 -563 303 -563t303 563q0 559 -303 559t-303 -559z" />
<glyph unicode="1" horiz-adv-x="960" d="M92 68v41q0 67 68 67h252v934l2 88h-4q-15 -29 -64 -78l-92 -90q-52 -46 -94 2l-29 29q-49 49 0 96l262 256q33 33 82 33h66q67 0 67 -68v-1202h250q68 0 68 -67v-41q0 -68 -68 -68h-698q-68 0 -68 68z" />
<glyph unicode="2" horiz-adv-x="1144" d="M98 68v43q0 122 52 223q26 50 57.5 91.5t77.5 82.5t76 64.5t92 68.5l170 121q82 57 133 130t51 148q0 106 -72.5 173t-187.5 67q-150 0 -256 -133q-51 -54 -96 -14l-37 28q-53 41 -19 92q68 95 173.5 156t248.5 61q202 0 328 -114q129 -114 129 -301q0 -76 -23.5 -144 t-63.5 -120.5t-92 -100.5t-109.5 -88.5t-115 -79.5t-110 -78t-93.5 -79t-65.5 -88.5t-26.5 -100.5h654q67 0 67 -67v-41q0 -68 -67 -68h-803q-72 0 -72 68z" />
<glyph unicode="3" horiz-adv-x="1138" d="M98 223l33 47q40 49 94 13q142 -115 297 -115q123 0 209 74q86 77 86 190q0 124 -94.5 195t-241.5 71h-45q-55 0 -76 50l-6 12q-22 49 17 88l278 330l90 94v4q-43 -6 -123 -6h-421q-68 0 -68 67v41q0 68 68 68h729q67 0 67 -64v-18q0 -47 -30 -82l-363 -418 q170 -18 295 -125q129 -108 129 -299q0 -192 -137 -329q-139 -136 -355 -136q-226 0 -421 154q-50 41 -11 94z" />
<glyph unicode="4" horiz-adv-x="1222" d="M47 455v12q0 43 27 84l614 852q27 43 80 43h113q67 0 67 -68v-819h129q68 0 68 -67v-37q0 -68 -58 -68h-139v-319q0 -68 -67 -68h-66q-67 0 -67 68v319h-633q-68 0 -68 68zM272 559h476v526l10 144h-4q-33 -64 -72 -119l-410 -547v-4z" />
<glyph unicode="5" horiz-adv-x="1132" d="M123 225l33 45q40 49 92 9q117 -111 266 -111q132 0 223 82q94 82 94 211q0 131 -94 213q-96 84 -235 84q-100 0 -199 -51q-52 -19 -90 -5l-18 7q-56 21 -50 79l62 594q6 64 69 64h598q68 0 68 -68v-41q0 -67 -68 -67h-485l-35 -305l-10 -76h4q77 45 187 45 q225 0 362 -137q141 -135 141 -334q0 -210 -147 -348q-146 -140 -365 -140q-231 0 -397 158q-52 40 -6 92z" />
<glyph unicode="6" d="M113 653q0 304 155 549q80 124 209.5 196t286.5 72q124 0 217 -34q63 -21 39 -86l-19 -52q-20 -56 -81 -41q-76 27 -148 27q-186 0 -301 -145q-110 -143 -137 -348h4q49 65 138 105t196 40q194 0 321 -133q125 -131 125 -332q0 -216 -131 -356q-134 -140 -336 -140 q-233 0 -387 189q-151 189 -151 489zM324 553q0 -133 96 -264q95 -127 231 -127q121 0 192.5 82.5t71.5 216.5q0 136 -81.5 219.5t-221.5 83.5q-122 0 -204 -64q-84 -63 -84 -147z" />
<glyph unicode="7" horiz-adv-x="1054" d="M55 1337v41q0 68 68 68h831q68 0 68 -64v-32q0 -48 -18 -82l-611 -1219q-21 -49 -78 -49h-67q-38 0 -52 22.5t3 57.5l524 1059l80 133v4q-27 -6 -101 -6h-579q-68 0 -68 67z" />
<glyph unicode="8" horiz-adv-x="1226" d="M111 408q0 230 231 393q-174 113 -174 291q0 155 117 266q115 112 333 112q207 0 332 -104q127 -106 127 -276q0 -192 -172 -379q205 -123 205 -314q0 -170 -139 -297q-137 -125 -357 -125q-216 0 -360 123q-143 122 -143 310zM313 428q0 -123 88 -199q87 -75 213 -75 q117 0 201 69q88 70 88 174q-8 67 -35 108t-90 77l-82 41l-102 45l-107 47q-174 -131 -174 -287zM367 1090q0 -90 90 -162q38 -30 133 -74l80 -35q22 -8 82 -35q127 139 127 283q0 105 -71.5 166t-189.5 61q-115 0 -183 -57t-68 -147z" />
<glyph unicode="9" d="M94 981q0 215 131 352t334 137q237 0 387 -188q154 -189 154 -487q0 -305 -158 -551q-77 -124 -206 -196.5t-287 -72.5q-131 0 -218 37q-63 18 -38 84l18 54q20 53 82 38q91 -26 147 -26q189 0 299 143q113 142 140 350h-5q-48 -64 -139.5 -103.5t-195.5 -39.5 q-193 0 -320 133q-125 134 -125 336zM297 985q0 -136 81.5 -219.5t221.5 -83.5q122 0 203 63q86 65 86 148q0 134 -96 262q-95 129 -232 129q-121 0 -192.5 -82.5t-71.5 -216.5z" />
<glyph unicode=":" horiz-adv-x="475" d="M135 68v75q0 68 66 68h73q68 0 68 -68v-75q0 -68 -68 -68h-73q-66 0 -66 68zM135 893v76q0 67 66 67h73q68 0 68 -67v-76q0 -68 -68 -68h-73q-66 0 -66 68z" />
<glyph unicode=";" horiz-adv-x="559" d="M98 -180l90 338q15 57 76 57h64q38 0 52.5 -21.5t0.5 -56.5l-123 -338q-18 -53 -78 -53h-24q-73 0 -58 74zM201 889v80q0 67 67 67h72q68 0 68 -67v-80q0 -68 -68 -68h-72q-67 0 -67 68z" />
<glyph unicode="&#x3c;" horiz-adv-x="1255" d="M121 571v23q0 60 51 80l823 366q35 14 57.5 0.5t22.5 -49.5v-41q0 -54 -53 -78l-680 -286v-4l680 -289q53 -21 53 -78v-39q0 -39 -22.5 -53.5t-57.5 2.5l-823 369q-51 20 -51 77z" />
<glyph unicode="=" horiz-adv-x="1255" d="M139 377v24q0 68 68 68h842q67 0 67 -68v-24q0 -68 -67 -68h-842q-68 0 -68 68zM139 764v24q0 68 68 68h842q67 0 67 -68v-24q0 -68 -67 -68h-842q-68 0 -68 68z" />
<glyph unicode="&#x3e;" horiz-adv-x="1255" d="M180 176v39q0 58 51 78l680 289v4l-680 286q-51 23 -51 78v41q0 38 21.5 51.5t56.5 -0.5l825 -368q52 -24 52 -80v-23q0 -56 -52 -77l-825 -369q-35 -14 -56.5 -0.5t-21.5 51.5z" />
<glyph unicode="?" horiz-adv-x="933" d="M94 1292q-40 58 12 92q142 91 304 91q180 0 303 -105q125 -104 125 -270q0 -86 -34 -161t-89 -128l-105 -94q-125 -102 -133 -225l-2 -43q-9 -52 -65 -52h-60q-67 0 -67 68v41q0 146 123 260l102 94q123 107 123 225q0 87 -67 145t-169 58q-92 0 -178 -51q-62 -33 -96 18 zM276 68v65q0 68 68 68h72q67 0 67 -68v-65q0 -68 -67 -68h-72q-68 0 -68 68z" />
<glyph unicode="@" horiz-adv-x="1626" d="M106 494q0 318 218 536q218 221 532 221q277 0 401 -118q129 -117 129 -297v-580h80q68 0 68 -68v-14q0 -68 -68 -68h-491q-186 0 -305 113t-119 275q0 156 117 270q119 113 307 113h221q-5 94 -93 152t-239 58q-233 0 -397 -176q-162 -174 -162 -417q0 -228 144 -398 q145 -167 372 -188q66 -6 66 -70v-26q0 -72 -70 -66q-309 21 -512 236q-199 211 -199 512zM752 496q0 -100 67 -170q70 -70 172 -70h205v483h-201q-105 0 -174 -70t-69 -173z" />
<glyph unicode="A" horiz-adv-x="1271" d="M31 49q0 14 6 29l475 1313q18 55 76 55h98q58 0 76 -55l475 -1313q6 -15 6 -29q0 -16 -10 -29q-14 -20 -51 -20h-70q-58 0 -76 55l-129 361h-545l-126 -361q-15 -55 -74 -55h-70q-39 0 -53 20q-8 11 -8 29zM416 584h438l-160 458l-55 205h-4q-40 -153 -57 -205z" />
<glyph unicode="B" horiz-adv-x="1263" d="M184 68v1310q0 68 68 68h438q188 0 303 -99.5t115 -269.5q0 -105 -46.5 -186.5t-131.5 -124.5v-4q109 -32 173 -128t64 -222q0 -197 -133 -306q-130 -106 -334 -106h-448q-68 0 -68 68zM385 176h326q116 0 183 67.5t67 178.5t-69 179.5t-181 68.5h-326v-494zM385 838h305 q96 0 154.5 61t58.5 158q0 98 -57.5 155.5t-159.5 57.5h-301v-432z" />
<glyph unicode="C" horiz-adv-x="1447" d="M94 731q0 316 207 529q204 210 528 210q282 0 480 -149q26 -20 26 -49q0 -23 -14 -45l-27 -41q-22 -31 -49 -31q-23 0 -45 14q-174 115 -362 115q-246 0 -392 -158q-143 -155 -143 -393q0 -237 148 -405q147 -166 389 -166q212 0 393 141q24 21 47 21q24 0 47 -29l31 -41 q16 -22 16 -43q0 -28 -26 -51q-221 -185 -514 -185q-329 0 -535 215q-205 217 -205 541z" />
<glyph unicode="D" horiz-adv-x="1492" d="M184 68v1310q0 68 68 68h412q333 0 532 -193q201 -192 201 -528q0 -337 -201 -532q-199 -193 -532 -193h-412q-68 0 -68 68zM385 176h264q250 0 394.5 144.5t144.5 404.5q0 257 -144.5 401t-394.5 144h-264v-1094z" />
<glyph unicode="E" horiz-adv-x="1136" d="M184 68v1310q0 68 68 68h704q68 0 68 -68v-41q0 -67 -68 -67h-571v-453h453q67 0 67 -67v-41q0 -68 -67 -68h-453v-465h606q68 0 68 -67v-41q0 -68 -68 -68h-739q-68 0 -68 68z" />
<glyph unicode="F" horiz-adv-x="1034" d="M184 68v1310q0 68 68 68h661q68 0 68 -68v-41q0 -67 -68 -67h-528v-475h438q68 0 68 -68v-41q0 -68 -68 -68h-438v-550q0 -68 -68 -68h-65q-68 0 -68 68z" />
<glyph unicode="G" horiz-adv-x="1538" d="M94 719q0 321 209 536q212 215 528 215q148 0 273 -39.5t203 -95.5q30 -21 30 -49q0 -21 -16 -43l-29 -43q-22 -31 -51 -31q-17 0 -43 13q-169 102 -356 102q-243 0 -391 -160t-148 -397q0 -244 152 -405q151 -160 376 -160q119 0 222 47q97 44 147 94l43 45v203h-168 q-67 0 -67 67v41q0 68 67 68h285q67 0 67 -68v-591q0 -68 -67 -68h-39q-68 0 -68 57v54l2 45h-4q-18 -23 -73 -64q-60 -47 -156.5 -80.5t-216.5 -36.5q-299 0 -504 211q-207 213 -207 533z" />
<glyph unicode="H" horiz-adv-x="1521" d="M184 68v1310q0 68 68 68h65q68 0 68 -68v-569h752v569q0 68 67 68h68q65 0 65 -68v-1310q0 -68 -65 -68h-68q-67 0 -67 68v567h-752v-567q0 -68 -68 -68h-65q-68 0 -68 68z" />
<glyph unicode="I" horiz-adv-x="569" d="M184 68v1310q0 68 68 68h65q68 0 68 -68v-1310q0 -68 -68 -68h-65q-68 0 -68 68z" />
<glyph unicode="J" horiz-adv-x="1069" d="M45 420q0 67 68 67h69q32 0 46.5 -15.5t19.5 -53.5q6 -121 62.5 -188.5t162.5 -67.5q103 0 165 65t62 191v852h-297q-65 0 -65 67v41q0 68 65 68h431q67 0 67 -68v-962q0 -218 -127 -330q-126 -111 -299 -111q-180 0 -305 113t-125 332z" />
<glyph unicode="K" horiz-adv-x="1239" d="M184 68v1310q0 68 68 68h65q68 0 68 -68v-540h217l338 563q23 45 80 45h76q41 0 54 -23.5t-7 -58.5l-375 -604v-4l401 -676q13 -23 13 -39q0 -6 -4 -18q-13 -23 -54 -23h-84q-52 0 -79 47l-359 617h-217v-596q0 -68 -68 -68h-65q-68 0 -68 68z" />
<glyph unicode="L" horiz-adv-x="1044" d="M184 68v1310q0 68 68 68h65q68 0 68 -68v-1202h582q67 0 67 -67v-41q0 -68 -67 -68h-715q-68 0 -68 68z" />
<glyph unicode="M" horiz-adv-x="1730" d="M135 70l107 1312q6 64 69 64h92q58 0 76 -53l314 -729l71 -195h4q46 139 70 195l313 729q18 53 76 53h92q64 0 70 -64l106 -1312v-6q0 -64 -65 -64h-66q-63 0 -69 66l-66 845l-4 213h-4q-62 -177 -78 -213l-266 -598q-21 -53 -78 -53h-68q-56 0 -77 53l-267 598l-77 217 h-4q2 -29 2 -81q0 -68 -7 -136l-65 -845q-6 -66 -68 -66h-67q-66 0 -66 64v6z" />
<glyph unicode="N" horiz-adv-x="1523" d="M184 68v1310q0 68 68 68h78q56 0 82 -45l616 -895l53 -88l47 -86l19 -35h4q-12 129 -12 209v872q0 68 67 68h66q67 0 67 -68v-1310q0 -68 -67 -68h-78q-57 0 -80 45l-618 893q-49 75 -119 211h-4q12 -129 12 -211v-870q0 -68 -68 -68h-65q-68 0 -68 68z" />
<glyph unicode="O" horiz-adv-x="1669" d="M92 733q0 313 211 524q213 213 533 213q317 0 530 -213q211 -211 211 -524q0 -323 -211 -540q-212 -218 -530 -218q-321 0 -533 218q-211 217 -211 540zM301 733q0 -241 152 -407q153 -164 383 -164q231 0 381 164q151 165 151 407q0 236 -151 393q-152 158 -381 158 q-228 0 -383 -158q-152 -158 -152 -393z" />
<glyph unicode="P" horiz-adv-x="1220" d="M184 68v1310q0 68 68 68h461q200 0 325 -125q127 -124 127 -328t-127 -331t-325 -127h-328v-467q0 -68 -68 -68h-65q-68 0 -68 68zM385 711h295q130 0 205.5 75.5t75.5 206.5q0 129 -75 203t-204 74h-297v-559z" />
<glyph unicode="Q" horiz-adv-x="1671" d="M94 731q0 315 211 526q213 213 529 213q321 0 534 -213q211 -211 211 -526q0 -271 -170 -477l119 -119q26 -20 26 -49q0 -22 -20 -45l-27 -29q-26 -26 -49 -26q-21 0 -43 22l-123 123q-193 -156 -458 -156q-319 0 -531 218q-209 218 -209 538zM303 731q0 -236 152 -405 q150 -164 379 -164q188 0 315 106l-121 121q-27 21 -27 47q0 21 23 47l27 27q26 29 49 29l41 -21l123 -125q106 144 106 338q0 239 -153 395q-155 158 -383 158q-227 0 -379 -158t-152 -395z" />
<glyph unicode="R" horiz-adv-x="1263" d="M184 68v1310q0 68 68 68h389q188 0 270 -39q107 -48 167.5 -147t60.5 -232q0 -141 -70 -250t-188 -147v-4q22 -26 43 -66l260 -481q12 -21 12 -37q0 -8 -4 -20q-16 -23 -53 -23h-82q-59 0 -80 47l-283 528h-309v-507q0 -68 -68 -68h-65q-68 0 -68 68zM385 752h291 q118 0 188 73t70 195q0 166 -135 225q-58 25 -172 25h-242v-518z" />
<glyph unicode="S" horiz-adv-x="1099" d="M92 174q0 23 19 45l34 49q21 27 50 27q23 0 43 -14q164 -117 315 -117q115 0 184.5 56.5t69.5 150.5q0 154 -246 256q-175 71 -251 119q-199 124 -199 317v6q0 179 133 291q131 110 336 110q108 0 205 -32t157 -78q31 -22 31 -53q0 -16 -10 -39l-29 -51q-17 -33 -47 -33 q-23 0 -45 14q-144 84 -267 84q-116 0 -188 -55.5t-72 -147.5q0 -29 8.5 -54.5t20.5 -45t36.5 -40t43 -33.5t54.5 -31t57.5 -27.5l64.5 -28.5t64 -28q108 -53 167 -89q81 -45 131 -127.5t50 -187.5q0 -176 -125 -295q-123 -117 -334 -117q-129 0 -243.5 43.5t-190.5 106.5 q-27 21 -27 49z" />
<glyph unicode="T" horiz-adv-x="1218" d="M12 1337v41q0 68 68 68h1061q65 0 65 -68v-41q0 -67 -65 -67h-430v-1202q0 -68 -68 -68h-68q-65 0 -65 68v1202h-430q-68 0 -68 67z" />
<glyph unicode="U" horiz-adv-x="1468" d="M166 512v866q0 68 67 68h68q66 0 66 -68v-864q0 -163 99 -257.5t267 -94.5t267.5 94.5t99.5 259.5v862q0 68 67 68h68q68 0 68 -68v-866q0 -240 -158 -389q-157 -148 -410 -148q-256 0 -413 148q-156 147 -156 389z" />
<glyph unicode="V" horiz-adv-x="1275" d="M25 1397q0 17 8 28q15 21 53 21h78q58 0 76 -55l340 -967l55 -199h4q29 117 55 199l344 967q18 55 76 55h76q38 0 53 -21q8 -11 8 -28q0 -14 -6 -29l-481 -1313q-18 -55 -76 -55h-98q-57 0 -78 55l-481 1313q-6 15 -6 29z" />
<glyph unicode="W" horiz-adv-x="1935" d="M78 1397q0 49 61 49h72q61 0 76 -60l239 -1001q18 -75 27 -154h4q9 56 35 154l268 1004q15 57 76 57h57q62 0 74 -57l268 -1004l33 -154h4q7 61 29 154l252 1001q15 60 76 60h69q62 0 62 -49q0 -17 -2 -25l-347 -1315q-15 -57 -75 -57h-113q-59 0 -74 57l-237 881 l-45 205h-6q-18 -100 -46 -205l-237 -881q-15 -57 -76 -57h-113q-60 0 -75 59l-334 1313q-2 8 -2 25z" />
<glyph unicode="X" horiz-adv-x="1202" d="M55 41q0 18 15 39l405 665l-377 621q-21 35 -8.5 57.5t53.5 22.5h86q51 0 80 -45l199 -346l92 -172h4q46 97 90 172l203 346q23 45 78 45h86q41 0 53.5 -22.5t-8.5 -57.5l-381 -621l408 -665q14 -20 14 -39q0 -6 -4 -18q-16 -23 -56 -23h-79q-53 0 -80 47l-236 397 l-92 166h-4q-39 -82 -88 -166l-234 -397q-27 -47 -79 -47h-78q-40 0 -56 23q-6 9 -6 18z" />
<glyph unicode="Y" horiz-adv-x="1161" d="M29 1403q0 11 6 20q16 23 53 23h82q57 0 78 -47l244 -428l88 -183h4q47 110 88 183l241 428q24 47 78 47h82q37 0 53 -23q7 -11 7 -20q0 -14 -13 -37l-438 -754v-544q0 -68 -68 -68h-67q-68 0 -68 68v544l-438 754q-12 21 -12 37z" />
<glyph unicode="Z" horiz-adv-x="1204" d="M66 68v20q0 44 28 86l668 965q14 22 90 118l14 15v4q-40 -6 -108 -6h-588q-68 0 -68 67v41q0 68 68 68h881q67 0 67 -66v-20q0 -47 -26 -86l-670 -967q-11 -17 -51 -67l-39 -47l-15 -17v-4q54 4 109 4h633q67 0 67 -67v-41q0 -68 -67 -68h-926q-67 0 -67 68z" />
<glyph unicode="[" horiz-adv-x="583" d="M164 -127v1567q0 65 67 65h205q66 0 66 -65v-17q0 -67 -64 -67h-100v-1399h98q66 0 66 -68v-16q0 -68 -66 -68h-205q-67 0 -67 68z" />
<glyph unicode="\" horiz-adv-x="808" d="M80 1448q-10 35 5 55.5t52 20.5h35q60 0 78 -56l479 -1478q10 -35 -5 -55.5t-52 -20.5h-37q-57 0 -78 55z" />
<glyph unicode="]" horiz-adv-x="583" d="M82 -111q0 68 65 68h99v1399h-99q-65 0 -65 67v17q0 65 65 65h205q68 0 68 -65v-1567q0 -68 -68 -68h-205q-65 0 -65 68v16z" />
<glyph unicode="^" horiz-adv-x="1255" d="M173.5 528.5q-14.5 22.5 2.5 57.5l352 809q20 51 78 51h19q57 0 77 -51l353 -809q17 -35 1 -57.5t-55 -22.5h-34q-57 0 -78 53l-275 668l-272 -668q-21 -53 -78 -53h-37q-39 0 -53.5 22.5z" />
<glyph unicode="_" horiz-adv-x="1126" d="M12 -68q0 68 68 68h967q67 0 67 -68v-24q0 -68 -67 -68h-967q-68 0 -68 68v24z" />
<glyph unicode="`" horiz-adv-x="1021" d="M376 1781q10 25 52 25h61q53 0 80 -47l80 -139q20 -29 10.5 -51.5t-43.5 -22.5h-41q-46 0 -81 41l-101 137q-27 32 -17 57z" />
<glyph unicode="a" horiz-adv-x="1058" d="M59 283q0 88 43.5 157t110.5 107q58 34 156 57q137 35 309 35h53v27q0 227 -225 227q-114 0 -234 -66q-23 -10 -39 -10q-32 0 -53 35l-16 29q-12 21 -12 41q0 33 34 51q155 88 336 88q196 0 302 -105t106 -301v-587q0 -68 -68 -68h-51q-68 0 -68 68v61l7 64h-5l-12 -25 q-10 -18 -40.5 -54.5t-61.5 -62.5q-38 -32 -98.5 -54t-124.5 -22q-142 0 -246 84q-103 83 -103 224zM260 299q0 -70 52.5 -118t140.5 -48q123 0 200 103q80 103 80 227v45h-53q-420 0 -420 -209z" />
<glyph unicode="b" d="M145 68v1310q0 68 68 68h63q66 0 66 -68v-420l-6 -88h4q1 2 4.5 8.5t7 12.5t12.5 18t23 27q116 125 291 125q205 0 328 -150q124 -148 124 -391q0 -244 -133 -395q-132 -150 -335 -150q-202 0 -312 162l-20 35h-4q6 -24 6 -61v-52q0 -59 -68 -59h-51q-68 0 -68 68z M338 518q0 -155 76 -262q77 -109 215 -109q132 0 216.5 100t84.5 269q0 167 -81 269t-212 102q-133 0 -216 -96t-83 -273z" />
<glyph unicode="c" horiz-adv-x="1087" d="M76 518q0 232 155 387q156 156 398 156q201 0 342 -111q30 -21 30 -47q0 -21 -18 -45l-20 -31q-21 -30 -50 -30q-21 0 -43 14q-110 78 -231 78q-156 0 -258 -105t-102 -264q0 -158 102 -266q104 -107 262 -107q137 0 264 95q20 14 43 14q29 0 49 -33l17 -30 q12 -21 12 -41q0 -28 -31 -50q-154 -127 -368 -127q-243 0 -400 154q-153 153 -153 389z" />
<glyph unicode="d" d="M80 518q0 247 131 393q132 150 338 150q65 0 122.5 -18t94.5 -45.5t59.5 -51.5t34.5 -45l10 -18h4q-6 30 -6 69v426q0 68 68 68h63q68 0 68 -68v-1310q0 -68 -68 -68h-53q-67 0 -67 63v60l4 51h-4l-11 -22q-12 -18 -41 -51t-61 -56q-39 -29 -100.5 -49.5t-128.5 -20.5 q-208 0 -334 150q-123 150 -123 393zM283 518q0 -167 80.5 -269t211.5 -102q133 0 216 96.5t83 276.5q0 149 -77 258t-217 109q-130 0 -213.5 -101t-83.5 -268z" />
<glyph unicode="e" horiz-adv-x="1116" d="M78 518q0 242 145 393q147 150 373 150q212 0 328 -137q118 -133 118 -357q0 -30 -19.5 -49.5t-49.5 -19.5h-692q9 -164 110 -258q104 -93 248 -93q138 0 248 82q23 13 41 13q33 0 51 -35l18 -31q15 -21 15 -41q0 -28 -35 -49q-156 -111 -350 -111q-242 0 -396 154 q-153 156 -153 389zM289 629h555q-4 130 -73.5 203t-178.5 73q-117 0 -200 -74t-103 -202z" />
<glyph unicode="f" horiz-adv-x="659" d="M55 932v26q0 68 68 68h65v49q0 93 29.5 165t71.5 111.5t97 64.5t97 32.5t80 7.5h25q67 0 67 -67v-39q0 -62 -71 -68q-67 -3 -127 -37q-70 -41 -70 -178v-41h178q68 0 68 -68v-26q0 -68 -68 -68h-178v-796q0 -68 -68 -68h-63q-68 0 -68 68v796h-65q-68 0 -68 68z" />
<glyph unicode="g" horiz-adv-x="1198" d="M82 545q0 225 121 370q125 146 342 146q70 0 130 -17.5t96.5 -44t58 -50.5t30.5 -44l8 -18h4q-4 16 -4 33v59q0 57 68 57h49q68 0 68 -67v-926q0 -235 -152 -354q-149 -119 -362 -119q-172 0 -301 57q-43 18 -43 56q0 18 8 34l14 35q18 41 55 41q16 0 31 -6 q116 -45 225 -45q149 0 237.5 73.5t88.5 217.5v90l6 65h-4q-95 -176 -307 -176q-214 0 -340 150q-127 151 -127 383zM285 553q0 -168 80 -268.5t219 -100.5q127 0 200.5 88t73.5 267q0 350 -287 350q-135 0 -210.5 -89.5t-75.5 -246.5z" />
<glyph unicode="h" d="M145 68v1310q0 68 68 68h63q66 0 66 -68v-469l-6 -86h4q42 91 143 164q103 74 244 74q356 0 356 -397v-596q0 -68 -67 -68h-64q-67 0 -67 68v550q0 132 -43.5 196.5t-153.5 64.5q-149 0 -248 -111q-98 -107 -98 -276v-424q0 -68 -66 -68h-63q-68 0 -68 68z" />
<glyph unicode="i" horiz-adv-x="485" d="M141 1311v67q0 68 68 68h70q67 0 67 -68v-67q0 -68 -67 -68h-70q-68 0 -68 68zM143 68v901q0 67 68 67h63q68 0 68 -67v-901q0 -68 -68 -68h-63q-68 0 -68 68z" />
<glyph unicode="j" horiz-adv-x="487" d="M-123 -317q0 58 68 67q29 1 53 6t52.5 19.5t48 38t33 65.5t13.5 98v992q0 67 68 67h63q66 0 66 -67v-1000q0 -97 -30 -171.5t-72 -114.5t-97 -65t-96 -32.5t-78 -7.5h-24q-68 0 -68 68v37zM141 1311v67q0 68 68 68h70q67 0 67 -68v-67q0 -68 -67 -68h-70q-68 0 -68 68z " />
<glyph unicode="k" horiz-adv-x="1042" d="M145 68v1310q0 68 68 68h63q66 0 66 -68v-721h150l251 336q27 43 80 43h76q41 0 53.5 -25t-12.5 -57l-287 -374v-5l332 -493q14 -20 14 -39q0 -6 -4 -18q-16 -25 -55 -25h-82q-53 0 -80 47l-282 438h-154v-417q0 -68 -66 -68h-63q-68 0 -68 68z" />
<glyph unicode="l" horiz-adv-x="536" d="M143 283v1095q0 68 68 68h63q68 0 68 -68v-1071q0 -128 94 -137q53 -6 53 -59v-50q0 -69 -69 -69q-277 0 -277 291z" />
<glyph unicode="m" horiz-adv-x="1847" d="M143 68v901q0 67 68 67h57q68 0 68 -67v-92l-6 -60h4q42 99 141 170q103 74 219 74q257 0 312 -236h4q49 100 145 166q101 70 221 70q176 0 259 -97.5t83 -299.5v-596q0 -68 -67 -68h-64q-67 0 -67 68v553q0 131 -41 195.5t-142 64.5q-137 0 -223 -121q-84 -122 -84 -277 v-415q0 -68 -65 -68h-66q-65 0 -65 68v553q0 132 -39 196t-142 64q-139 0 -225 -121t-86 -277v-415q0 -68 -68 -68h-63q-68 0 -68 68z" />
<glyph unicode="n" horiz-adv-x="1210" d="M143 68v901q0 67 68 67h57q68 0 68 -67v-92l-6 -60h4q42 92 141 166q104 78 252 78q354 0 354 -397v-596q0 -68 -67 -68h-64q-67 0 -67 68v550q0 133 -42.5 197t-152.5 64q-149 0 -248 -111q-98 -110 -98 -272v-428q0 -68 -68 -68h-63q-68 0 -68 68z" />
<glyph unicode="o" horiz-adv-x="1267" d="M76 520q0 235 162 387q165 154 395 154q232 0 397 -154q162 -152 162 -387q0 -233 -164 -389q-163 -156 -395 -156q-231 0 -395 156q-162 155 -162 389zM276 520q0 -158 105 -266q104 -107 252 -107q150 0 252 105q104 107 104 268q0 160 -104 264q-102 105 -252 105 q-147 0 -252 -105t-105 -264z" />
<glyph unicode="p" d="M145 -342v1311q0 67 68 67h47q68 0 68 -57v-61l-4 -56h4l12 23q7 15 37.5 48.5t62.5 57.5q41 29 104 49.5t132 20.5q207 0 330 -150q124 -148 124 -393q0 -242 -133 -393q-132 -150 -335 -150q-64 0 -121 18.5t-95 46.5t-61 52.5t-35 46.5l-10 21h-4q6 -38 6 -90v-412 q0 -68 -66 -68h-63q-68 0 -68 68zM338 514q0 -145 78 -258q80 -109 215 -109q130 0 214.5 101t84.5 268t-81 269t-212 102q-133 0 -216 -96.5t-83 -276.5z" />
<glyph unicode="q" d="M80 518q0 247 131 393q132 150 340 150q202 0 311 -158l21 -35h4q-4 32 -4 58v53q0 57 67 57h49q68 0 68 -67v-1311q0 -68 -68 -68h-63q-68 0 -68 68v420l6 90h-4q-1 -2 -4.5 -8.5t-7 -12t-12.5 -18.5t-23 -29q-103 -125 -291 -125q-201 0 -327 150q-125 149 -125 393z M283 518q0 -167 80.5 -269t211.5 -102q133 0 216 96.5t83 276.5q0 149 -77 258t-217 109q-130 0 -213.5 -101t-83.5 -268z" />
<glyph unicode="r" horiz-adv-x="729" d="M143 68v901q0 67 68 67h57q68 0 68 -67v-119l-6 -78h4q38 117 124 194.5t193 77.5q66 0 66 -67v-57q0 -68 -74 -68q-143 0 -223 -129q-78 -128 -78 -295v-360q0 -68 -68 -68h-63q-68 0 -68 68z" />
<glyph unicode="s" horiz-adv-x="899" d="M72 135q0 19 16 45l21 29q23 29 49 29q21 0 45 -15q131 -84 254 -84q80 0 128 36t48 101q0 95 -191 158q-57 20 -95 34.5t-90 44t-83 61.5q-31 30 -54 80q-22 47 -22 103q0 148 107 224q109 80 268 80q160 0 287 -80q35 -18 35 -49q0 -18 -13 -41l-18 -31 q-17 -33 -51 -33q-13 0 -39 11q-106 59 -211 59q-79 0 -126.5 -34.5t-47.5 -96.5q0 -97 188 -160q43 -14 68.5 -23.5t66.5 -27t66.5 -34t56 -42t47.5 -53t29 -65t12 -80.5q0 -135 -104 -220q-103 -86 -268 -86q-200 0 -349 113q-30 18 -30 47z" />
<glyph unicode="t" horiz-adv-x="700" d="M55 932v26q0 68 68 68h74v227q0 68 67 68h60q67 0 67 -68v-227h180q68 0 68 -68v-26q0 -68 -66 -68h-182v-461q0 -218 197 -233q41 -5 56 -19t15 -49v-43q0 -67 -81 -67q-171 0 -278 100t-107 281v491h-72q-66 0 -66 68z" />
<glyph unicode="u" horiz-adv-x="1202" d="M131 373v596q0 67 68 67h63q66 0 66 -67v-551q0 -130 43 -194t151 -64q154 0 246 114q92 115 92 277v418q0 67 68 67h63q68 0 68 -67v-901q0 -68 -68 -68h-57q-68 0 -68 68v92l6 59h-4q-40 -91 -143 -168q-101 -76 -242 -76q-178 0 -265 98t-87 300z" />
<glyph unicode="v" horiz-adv-x="1021" d="M33 987q0 18 8 29q14 20 51 20h70q58 0 76 -55l233 -645q23 -64 37 -141h4q16 71 37 141l233 645q18 55 76 55h70q37 0 51 -20q8 -11 8 -27t-6 -31l-336 -905q-18 -53 -76 -53h-114q-58 0 -76 53l-340 905q-6 15 -6 29z" />
<glyph unicode="w" horiz-adv-x="1644" d="M43 985q0 18 10 31q14 20 51 20h68q61 0 76 -57l203 -670l24 -110h4q6 30 29 110l209 668q12 57 74 57h63q61 0 76 -57l209 -668l26 -110h4q5 34 27 110l203 670q12 57 74 57h67q39 0 53 -20q9 -12 9 -31q0 -3 -1 -6.5t-2 -8.5t-2 -9l-292 -904q-15 -57 -76 -57h-101 q-60 0 -75 57l-199 609l-29 112h-4q-13 -61 -30 -112l-197 -609q-15 -57 -76 -57h-102q-61 0 -76 57l-293 904q-4 20 -4 24z" />
<glyph unicode="x" horiz-adv-x="989" d="M57 43q0 18 15 39l301 450l-283 422q-23 35 -10 58.5t55 23.5h78q54 0 78 -47l168 -268l33 -62h4q8 14 20.5 37t13.5 25l166 268q27 47 80 47h76q42 0 55 -23.5t-10 -58.5l-281 -422l302 -450q14 -20 14 -39q0 -9 -6 -18q-12 -25 -54 -25h-73q-53 0 -80 47l-191 299 l-32 57h-4q-11 -24 -31 -57l-191 -299q-27 -47 -80 -47h-73q-40 0 -56 25q-4 12 -4 18z" />
<glyph unicode="y" horiz-adv-x="1028" d="M16 -346q0 11 11 37l16 35q17 38 53 38q7 0 23 -4q61 -22 82 -22q58 0 104.5 42.5t73.5 113.5l51 118l-401 946q-13 37 0 58q14 20 51 20h80q58 0 76 -53l243 -625l37 -125h4q12 55 35 123l236 625q18 55 75 55h74q37 0 51 -20q8 -11 8 -27t-6 -31l-456 -1140 q-44 -117 -134 -182.5t-202 -65.5q-68 0 -144 33q-41 15 -41 51z" />
<glyph unicode="z" horiz-adv-x="1024" d="M63 57v17q0 38 29 78l494 618l86 96v4q-46 -4 -101 -4h-417q-68 0 -68 68v35q0 67 68 67h718q68 0 68 -57v-16q0 -38 -29 -78l-493 -621l-88 -94v-4q46 4 100 4h459q67 0 67 -66v-36q0 -68 -67 -68h-758q-68 0 -68 57z" />
<glyph unicode="{" horiz-adv-x="665" d="M55 637v59q0 47 56 74q118 58 118 211v170q0 106 33 185t86 112q88 61 172 61h23q67 0 67 -67v-25q0 -67 -67 -67q-140 0 -140 -215v-205q0 -45 -11.5 -85t-28.5 -67.5t-38.5 -49.5t-38.5 -34t-32 -18l-16 -6v-4l8 -4q9 -3 24 -11.5t32 -21t35 -33.5t32.5 -47t24 -63 t9.5 -80v-232q0 -68 15.5 -115t40 -66.5t44.5 -26.5t40 -7q67 0 67 -68v-24q0 -68 -67 -68h-23q-82 0 -172 62q-53 33 -86 112t-33 185v196q0 155 -118 207q-56 27 -56 76z" />
<glyph unicode="|" horiz-adv-x="497" d="M162 -258v1812q0 68 67 68h39q68 0 68 -68v-1812q0 -68 -68 -68h-39q-67 0 -67 68z" />
<glyph unicode="}" horiz-adv-x="667" d="M55 -109q0 68 68 68q15 0 30.5 3.5t36 16.5t35.5 35t26 63.5t11 96.5v232q0 58 16.5 106.5t42 77.5t47.5 45.5t42 23.5l18 7v4l-8 4q-9 3 -24 12t-32.5 22t-35.5 34t-32.5 46.5t-24 62.5t-9.5 79v205q0 215 -139 215q-68 0 -68 67v25q0 67 68 67h22q29 0 61 -7t74.5 -30 t76 -60t56.5 -105t23 -156v-170q0 -153 119 -211q55 -27 55 -74v-59q0 -49 -55 -76q-119 -52 -119 -207v-196q0 -88 -23 -156t-56.5 -105t-76 -60.5t-75 -30.5t-60.5 -7h-22q-68 0 -68 68v24z" />
<glyph unicode="~" horiz-adv-x="1206" d="M121 506q35 258 280 258q67 0 126.5 -29.5t93.5 -70.5q85 -101 174 -101q100 0 127 129q21 64 71 64h31q32 0 49.5 -20t13.5 -52q-27 -274 -280 -274q-67 0 -126 28.5t-93 69.5q-34 42 -80 71t-94 29q-100 0 -127 -129q-21 -61 -72 -61h-31q-75 0 -63 88z" />
<glyph unicode="&#xa2;" horiz-adv-x="1144" d="M98 723q0 228 117 387q115 161 313 188v105q0 67 66 67h16q64 0 64 -57v-115q113 -13 208.5 -83t147.5 -171q31 -60 -35 -88l-57 -22q-54 -19 -88 33q-88 147 -240 147q-146 0 -227.5 -106.5t-81.5 -286.5q0 -172 80 -281q78 -106 229 -106q152 0 240 147q36 51 88 33 l57 -22q66 -28 35 -89q-53 -102 -148.5 -172.5t-207.5 -80.5v-109q0 -68 -64 -68h-16q-66 0 -66 68v109q-196 27 -313 186q-117 164 -117 387z" />
<glyph unicode="&#xa3;" horiz-adv-x="1183" d="M109 68v41q0 67 67 67h62v477h-43q-62 0 -62 66v12q0 66 62 66h43v278q0 171 124 283t320 112q152 0 289 -88q55 -40 8 -94l-31 -41q-36 -44 -94 -10q-82 49 -170 49q-109 0 -175.5 -62t-66.5 -157v-270h310q67 0 67 -66v-12q0 -66 -67 -66h-310v-477h598q68 0 68 -67 v-41q0 -68 -68 -68h-864q-67 0 -67 68z" />
<glyph unicode="&#xa5;" horiz-adv-x="1208" d="M76.5 1423.5q13.5 22.5 54.5 22.5h84q58 0 78 -51l221 -400l88 -209h4q51 134 88 209l221 400q20 51 78 51h84q41 0 54.5 -22.5t-5.5 -57.5l-297 -526h142q67 0 67 -58v-12q0 -59 -67 -59h-211l-53 -99v-75h264q67 0 67 -58v-12q0 -59 -67 -59h-264v-340q0 -68 -68 -68 h-70q-67 0 -67 68v340h-266q-68 0 -68 59v12q0 58 68 58h266v75l-56 99h-210q-68 0 -68 59v12q0 58 59 58h152l-297 526q-19 35 -5.5 57.5z" />
<glyph unicode="&#xa8;" horiz-adv-x="1021" d="M258 1667v72q0 67 68 67h28q68 0 68 -67v-72q0 -68 -68 -68h-28q-68 0 -68 68zM600 1667v72q0 67 68 67h28q68 0 68 -67v-72q0 -68 -68 -68h-28q-68 0 -68 68z" />
<glyph unicode="&#xa9;" horiz-adv-x="1671" d="M104 723q0 311 211 528q213 219 516 219q305 0 521 -219q215 -218 215 -528q0 -312 -215 -530t-521 -218q-304 0 -516 218q-211 217 -211 530zM254 723q0 -257 166 -432q170 -176 411 -176q246 0 416 176t170 432t-170 432t-416 176q-241 0 -411 -176 q-166 -175 -166 -432zM444 721q0 169 111 289q114 120 295 120q93 0 171 -41.5t124 -101.5q34 -46 -6 -76l-27 -22q-40 -34 -82 14q-77 86 -176 86q-116 0 -186 -76t-70 -194q0 -116 69 -191t187 -75q109 0 184 90q37 42 74 8l25 -19q41 -35 8 -79q-121 -142 -295 -142 q-185 0 -295 119q-111 120 -111 291z" />
<glyph unicode="&#xab;" horiz-adv-x="1071" d="M102 530q-41 48 0 95l265 336q32 38 84 38h41q42 0 53.5 -24.5t-15.5 -56.5l-268 -340l268 -338q27 -35 19 -58.5t-49 -23.5h-49q-51 0 -84 39zM514 530q-38 48 0 95l266 336q32 38 82 38h43q43 0 54 -24.5t-15 -56.5l-268 -340l268 -338q29 -35 19 -58.5t-52 -23.5h-49 q-49 0 -82 39z" />
<glyph unicode="&#xad;" horiz-adv-x="860" d="M131 563v41q0 68 68 68h463q67 0 67 -68v-41q0 -67 -67 -67h-463q-68 0 -68 67z" />
<glyph unicode="&#xae;" horiz-adv-x="1671" d="M104 723q0 309 213 528t514 219q308 0 521 -219q215 -218 215 -528q0 -312 -215 -530q-212 -218 -521 -218q-302 0 -514 218q-213 219 -213 530zM254 723q0 -257 166 -432q170 -176 411 -176q246 0 416 176t170 432t-170 432t-416 176q-241 0 -411 -176 q-166 -175 -166 -432zM582 406v638q0 68 67 68h232q109 0 175 -64.5t66 -170.5q0 -78 -41.5 -134.5t-99.5 -70.5v-4q10 -10 27 -43l106 -207q19 -35 8.5 -56.5t-45.5 -21.5h-24q-59 0 -80 49l-119 250h-127v-233q0 -66 -63 -66h-19q-63 0 -63 66zM727 745h123q60 0 92.5 35 t32.5 97q0 59 -32.5 91.5t-90.5 32.5h-125v-256z" />
<glyph unicode="&#xb4;" horiz-adv-x="1021" d="M364.5 1568.5q-12.5 22.5 6.5 53.5l82 137q27 47 79 47h60q42 0 53 -25t-16 -57l-101 -137q-35 -41 -82 -41h-34q-35 0 -47.5 22.5z" />
<glyph unicode="&#xb8;" horiz-adv-x="1021" d="M356 -365q0 62 37 62q4 0 24 -3t29 -3q89 0 89 65q0 57 -97 66q-47 3 -32 57l38 160h109l-29 -141q67 -8 107.5 -48t40.5 -102q0 -84 -58 -128t-151 -44q-107 0 -107 59z" />
<glyph unicode="&#xbb;" horiz-adv-x="1071" d="M109.5 974.5q9.5 24.5 50.5 24.5h49q50 0 82 -38l266 -336q41 -47 0 -95l-266 -333q-33 -39 -82 -39h-43q-43 0 -54 23.5t15 58.5l268 338l-268 340q-27 32 -17.5 56.5zM522 974.5q10 24.5 51 24.5h50q50 0 82 -38l266 -336q38 -47 0 -95l-266 -333q-33 -39 -82 -39h-43 q-43 0 -54 23.5t15 58.5l268 338l-268 340q-29 32 -19 56.5z" />
<glyph unicode="&#xc2;" horiz-adv-x="1271" d="M37 78l475 1313q18 55 76 55h98q58 0 76 -55l475 -1313q12 -35 -3 -56.5t-52 -21.5h-70q-58 0 -76 55l-129 361h-545l-126 -361q-15 -55 -74 -55h-70q-38 0 -52.5 21t-2.5 57zM394 1569.5q-9 23.5 14 58.5l94 133q29 45 84 45h100q56 0 82 -45l96 -133q23 -35 14 -58.5 t-44 -23.5h-46q-45 0 -71 45l-80 119h-4l-80 -119q-23 -45 -72 -45h-41q-37 0 -46 23.5zM416 584h438l-160 458l-55 205h-4q-40 -153 -57 -205z" />
<glyph unicode="&#xc7;" horiz-adv-x="1452" d="M96 731q0 316 207 529q204 210 528 210q282 0 480 -149q46 -37 12 -94l-27 -41q-36 -54 -94 -17q-174 115 -362 115q-245 0 -391 -158q-144 -156 -144 -393t148 -405q147 -166 389 -166q212 0 393 141q55 43 94 -8l31 -41q39 -51 -10 -94q-212 -176 -486 -185l-16 -77 q67 -8 107 -48t40 -102q0 -84 -58 -128t-151 -44q-106 0 -106 59q0 62 37 62q4 0 24 -3t29 -3q88 0 88 65q0 57 -96 66q-48 3 -33 57l25 101q-298 27 -478 237t-180 514z" />
<glyph unicode="&#xce;" horiz-adv-x="569" d="M45.5 1569.5q-9.5 23.5 13.5 58.5l95 133q29 45 84 45h100q56 0 82 -45l96 -133q23 -35 14 -58.5t-45 -23.5h-45q-45 0 -71 45l-80 119h-4l-80 -119q-23 -45 -72 -45h-41q-37 0 -46.5 23.5zM184 68v1310q0 68 68 68h65q68 0 68 -68v-1310q0 -68 -68 -68h-65q-68 0 -68 68 z" />
<glyph unicode="&#xd6;" horiz-adv-x="1669" d="M92 733q0 313 211 524q213 213 533 213q317 0 530 -213q211 -211 211 -524q0 -323 -211 -540q-212 -218 -530 -218q-321 0 -533 218q-211 217 -211 540zM301 733q0 -241 152 -407q153 -164 383 -164q231 0 381 164q151 165 151 407q0 236 -151 393q-152 158 -381 158 q-228 0 -383 -158q-152 -158 -152 -393zM582 1667v72q0 67 67 67h29q67 0 67 -67v-72q0 -68 -67 -68h-29q-67 0 -67 68zM924 1667v72q0 67 67 67h29q67 0 67 -67v-72q0 -68 -67 -68h-29q-67 0 -67 68z" />
<glyph unicode="&#xdb;" horiz-adv-x="1468" d="M166 512v866q0 68 67 68h68q66 0 66 -68v-864q0 -163 99 -257.5t267 -94.5t267.5 94.5t99.5 259.5v862q0 68 67 68h68q68 0 68 -68v-866q0 -240 -158 -389q-157 -148 -410 -148q-256 0 -413 148q-156 147 -156 389zM490.5 1569.5q-9.5 23.5 13.5 58.5l94 133q29 45 84 45 h100q56 0 82 -45l97 -133q23 -35 14 -58.5t-45 -23.5h-45q-46 0 -72 45l-80 119h-4l-80 -119q-23 -45 -71 -45h-41q-37 0 -46.5 23.5z" />
<glyph unicode="&#xdc;" horiz-adv-x="1468" d="M166 512v866q0 68 67 68h68q66 0 66 -68v-864q0 -163 99 -257.5t267 -94.5t267.5 94.5t99.5 259.5v862q0 68 67 68h68q68 0 68 -68v-866q0 -240 -158 -389q-157 -148 -410 -148q-256 0 -413 148q-156 147 -156 389zM481 1667v72q0 67 68 67h29q67 0 67 -67v-72 q0 -68 -67 -68h-29q-68 0 -68 68zM823 1667v72q0 67 68 67h29q67 0 67 -67v-72q0 -68 -67 -68h-29q-68 0 -68 68z" />
<glyph unicode="&#xe2;" horiz-adv-x="1058" d="M59 283q0 88 43.5 157t110.5 107q58 34 156 57q137 35 309 35h53v27q0 227 -225 227q-114 0 -234 -66q-58 -27 -92 25l-16 29q-34 61 22 92q155 88 336 88q196 0 302 -105t106 -301v-587q0 -68 -68 -68h-51q-68 0 -68 68v61l7 64h-5l-12 -25q-8 -18 -38 -53.5t-64 -63.5 q-38 -32 -98.5 -54t-124.5 -22q-142 0 -246 84q-103 83 -103 224zM260 299q0 -70 52.5 -118t140.5 -48q123 0 200 103q80 103 80 227v45h-53q-420 0 -420 -209zM283.5 1211.5q-9.5 23.5 13.5 58.5l94 133q29 45 84 45h100q56 0 82 -45l97 -133q23 -35 14 -58.5t-45 -23.5 h-45q-46 0 -72 45l-80 119h-4l-80 -119q-23 -45 -71 -45h-41q-37 0 -46.5 23.5z" />
<glyph unicode="&#xe7;" horiz-adv-x="1093" d="M78 518q0 232 155 387q156 156 398 156q201 0 342 -111q52 -34 12 -92l-20 -31q-34 -51 -93 -16q-110 78 -231 78q-156 0 -258 -105t-102 -264q0 -158 102 -266q104 -107 262 -107q137 0 264 95q57 37 92 -19l17 -30q35 -56 -19 -91q-148 -121 -346 -127l-14 -77 q67 -8 107 -48t40 -102q0 -84 -58 -128t-150 -44q-107 0 -107 59q0 62 37 62q4 0 24 -3t29 -3q88 0 88 65q0 57 -96 66q-48 3 -33 57l25 103q-209 27 -338 174q-129 150 -129 362z" />
<glyph unicode="&#xee;" horiz-adv-x="485" d="M2.5 1211.5q-9.5 23.5 13.5 58.5l95 133q29 45 84 45h100q56 0 82 -45l96 -133q23 -35 14 -58.5t-45 -23.5h-45q-45 0 -71 45l-80 119h-4l-80 -119q-23 -45 -72 -45h-41q-37 0 -46.5 23.5zM143 68v901q0 67 68 67h63q68 0 68 -67v-901q0 -68 -68 -68h-63q-68 0 -68 68z " />
<glyph unicode="&#xf6;" horiz-adv-x="1267" d="M76 520q0 235 162 387q165 154 395 154q232 0 397 -154q162 -152 162 -387q0 -233 -164 -389q-163 -156 -395 -156q-231 0 -395 156q-162 155 -162 389zM276 520q0 -158 105 -266q104 -107 252 -107q150 0 252 105q104 107 104 268q0 160 -104 264q-102 105 -252 105 q-147 0 -252 -105t-105 -264zM381 1309v71q0 68 68 68h28q68 0 68 -68v-71q0 -68 -68 -68h-28q-68 0 -68 68zM723 1309v71q0 68 68 68h28q68 0 68 -68v-71q0 -68 -68 -68h-28q-68 0 -68 68z" />
<glyph unicode="&#xfb;" horiz-adv-x="1202" d="M131 373v596q0 67 68 67h63q66 0 66 -67v-551q0 -130 43 -194t151 -64q154 0 246 114q92 115 92 277v418q0 67 68 67h63q68 0 68 -67v-901q0 -68 -68 -68h-57q-68 0 -68 68v92l6 59h-4q-40 -91 -143 -168q-101 -76 -242 -76q-178 0 -265 98t-87 300zM351 1211.5 q-9 23.5 14 58.5l94 133q29 45 84 45h100q56 0 82 -45l96 -133q23 -35 14 -58.5t-44 -23.5h-46q-45 0 -71 45l-80 119h-4l-80 -119q-23 -45 -72 -45h-41q-37 0 -46 23.5z" />
<glyph unicode="&#xfc;" horiz-adv-x="1202" d="M131 373v596q0 67 68 67h63q66 0 66 -67v-551q0 -130 43 -194t151 -64q154 0 246 114q92 115 92 277v418q0 67 68 67h63q68 0 68 -67v-901q0 -68 -68 -68h-57q-68 0 -68 68v92l6 59h-4q-40 -91 -143 -168q-101 -76 -242 -76q-178 0 -265 98t-87 300zM342 1309v71 q0 68 68 68h28q68 0 68 -68v-71q0 -68 -68 -68h-28q-68 0 -68 68zM684 1309v71q0 68 68 68h28q68 0 68 -68v-71q0 -68 -68 -68h-28q-68 0 -68 68z" />
<glyph unicode="&#x11e;" horiz-adv-x="1538" d="M94 719q0 321 209 536q212 215 528 215q148 0 273 -39.5t203 -95.5q51 -40 14 -92l-29 -43q-34 -52 -94 -18q-169 102 -356 102q-243 0 -391 -160t-148 -397q0 -244 152 -405q151 -160 376 -160q119 0 222 47q97 44 147 94l43 45v203h-168q-67 0 -67 67v41q0 68 67 68 h285q67 0 67 -68v-591q0 -68 -67 -68h-39q-68 0 -68 57v54l2 45h-4q-18 -23 -73 -64q-60 -47 -156.5 -80.5t-216.5 -36.5q-299 0 -504 211q-207 213 -207 533zM541 1761q0 45 59 45h29q50 0 59 -47q15 -102 121 -102q104 0 119 102q9 47 59 47h29q59 0 59 -45 q0 -94 -80 -159q-79 -64 -186 -64q-104 0 -186 64t-82 159z" />
<glyph unicode="&#x11f;" horiz-adv-x="1198" d="M82 545q0 225 121 370q125 146 342 146q70 0 130 -17.5t96.5 -44t58 -50.5t30.5 -44l8 -18h4q-4 16 -4 33v59q0 57 68 57h49q68 0 68 -67v-926q0 -235 -152 -354q-149 -119 -362 -119q-172 0 -301 57q-61 27 -35 90l14 35q26 57 86 35q116 -45 225 -45q149 0 237.5 73.5 t88.5 217.5v90l6 65h-4q-95 -176 -307 -176q-214 0 -340 150q-127 151 -127 383zM285 553q0 -168 80 -268.5t219 -100.5q127 0 200.5 88t73.5 267q0 350 -287 350q-135 0 -210.5 -89.5t-75.5 -246.5zM315 1403q0 45 60 45h28q51 0 60 -47q15 -103 121 -103q103 0 118 103 q9 47 60 47h29q59 0 59 -45q0 -95 -80 -160q-78 -63 -186 -63q-106 0 -187 63q-82 64 -82 160z" />
<glyph unicode="&#x130;" horiz-adv-x="569" d="M184 68v1310q0 68 68 68h65q68 0 68 -68v-1310q0 -68 -68 -68h-65q-68 0 -68 68zM199 1673v66q0 67 67 67h43q68 0 68 -67v-66q0 -67 -68 -67h-43q-67 0 -67 67z" />
<glyph unicode="&#x131;" horiz-adv-x="485" d="M143 68v901q0 67 68 67h63q68 0 68 -67v-901q0 -68 -68 -68h-63q-68 0 -68 68z" />
<glyph unicode="&#x15e;" horiz-adv-x="1103" d="M111 219l34 49q38 47 93 13q164 -117 315 -117q115 0 184.5 56.5t69.5 150.5q0 154 -246 256q-175 71 -251 119q-202 126 -199 323q0 179 133 291q131 110 336 110q108 0 205 -32t157 -78q48 -33 21 -92l-29 -51q-31 -56 -92 -19q-144 84 -267 84q-116 0 -188 -55.5 t-72 -147.5q0 -29 8.5 -54.5t20.5 -45t36.5 -40t43 -33.5t54.5 -31t57.5 -27.5l64.5 -28.5t64 -28q108 -53 167 -89q81 -45 131 -127.5t50 -187.5q0 -163 -109 -278q-111 -117 -297 -132l-16 -79q67 -8 107 -48t40 -102q0 -84 -58 -128t-151 -44q-106 0 -106 59q0 62 37 62 q4 0 24 -3t29 -3q88 0 88 65q0 57 -96 66q-48 3 -33 57l25 101q-223 18 -377 145q-47 44 -8 94z" />
<glyph unicode="&#x15f;" horiz-adv-x="903" d="M88 180l21 29q36 48 94 14q131 -84 254 -84q80 0 128 36t48 101q0 95 -191 158q-57 20 -95 34.5t-90 44t-83 61t-54 81t-22 107.5q0 143 107 219q109 80 268 80q160 0 287 -80q58 -27 22 -90l-18 -31q-26 -50 -90 -22q-106 59 -211 59q-79 0 -126.5 -34.5t-47.5 -96.5 q0 -97 188 -160q43 -14 68.5 -23.5t66.5 -27t66.5 -34t56 -42t47.5 -53t29 -65t12 -80.5q0 -124 -90 -208t-237 -96l-17 -79q67 -8 107.5 -48t40.5 -102q0 -84 -58 -128t-151 -44q-107 0 -107 59q0 62 37 62q4 0 24 -3t29 -3q88 0 88 65q0 57 -96 66q-48 3 -33 57l25 101 q-158 15 -283 108q-51 34 -14 92z" />
<glyph unicode="&#x2c6;" horiz-adv-x="1021" d="M269 1569.5q-9 23.5 14 58.5l94 133q29 45 84 45h100q56 0 82 -45l96 -133q23 -35 15 -58.5t-45 -23.5h-45q-46 0 -72 45l-80 119h-4l-80 -119q-23 -45 -72 -45h-41q-37 0 -46 23.5z" />
<glyph unicode="&#x2da;" horiz-adv-x="1024" d="M338 1673q0 68 50.5 111t123.5 43t123.5 -43t50.5 -111q0 -66 -50.5 -108.5t-123.5 -42.5t-123.5 42.5t-50.5 108.5zM444 1673q0 -29 19 -48t49 -19q29 0 48.5 19t19.5 48q0 32 -19 52t-49 20q-31 0 -49.5 -20t-18.5 -52z" />
<glyph unicode="&#x2dc;" horiz-adv-x="1021" d="M172 1614q0 85 53.5 139.5t139.5 54.5q36 0 71 -14.5t61.5 -35t50 -40.5t46.5 -34.5t43 -14.5q34 0 54 26t22 66q3 41 61 41h17q59 0 59 -57q0 -92 -52.5 -147.5t-140.5 -55.5q-36 0 -71 14.5t-61.5 35t-50 40.5t-46.5 34.5t-43 14.5q-75 0 -78 -92q-6 -41 -59 -41h-17 q-59 0 -59 66z" />
<glyph unicode="&#x2000;" horiz-adv-x="913" />
<glyph unicode="&#x2001;" horiz-adv-x="1827" />
<glyph unicode="&#x2002;" horiz-adv-x="913" />
<glyph unicode="&#x2003;" horiz-adv-x="1827" />
<glyph unicode="&#x2004;" horiz-adv-x="609" />
<glyph unicode="&#x2005;" horiz-adv-x="456" />
<glyph unicode="&#x2006;" horiz-adv-x="304" />
<glyph unicode="&#x2007;" horiz-adv-x="304" />
<glyph unicode="&#x2008;" horiz-adv-x="228" />
<glyph unicode="&#x2009;" horiz-adv-x="365" />
<glyph unicode="&#x200a;" horiz-adv-x="101" />
<glyph unicode="&#x2010;" horiz-adv-x="860" d="M131 563v41q0 68 68 68h463q67 0 67 -68v-41q0 -67 -67 -67h-463q-68 0 -68 67z" />
<glyph unicode="&#x2011;" horiz-adv-x="860" d="M131 563v41q0 68 68 68h463q67 0 67 -68v-41q0 -67 -67 -67h-463q-68 0 -68 67z" />
<glyph unicode="&#x2012;" horiz-adv-x="860" d="M131 563v41q0 68 68 68h463q67 0 67 -68v-41q0 -67 -67 -67h-463q-68 0 -68 67z" />
<glyph unicode="&#x2013;" horiz-adv-x="1341" d="M133 571v25q0 68 66 68h944q67 0 67 -68v-25q0 -67 -67 -67h-944q-66 0 -66 67z" />
<glyph unicode="&#x2014;" horiz-adv-x="1751" d="M133 571v25q0 68 66 68h1353q68 0 68 -68v-25q0 -67 -68 -67h-1353q-66 0 -66 67z" />
<glyph unicode="&#x2018;" horiz-adv-x="428" d="M94 1100l103 315q18 53 75 53h19q70 0 55 -73l-74 -312q-12 -61 -71 -61h-51q-37 0 -52.5 21.5t-3.5 56.5z" />
<glyph unicode="&#x2019;" horiz-adv-x="423" d="M98 1098l72 311q12 59 74 59h49q37 0 52 -20t3 -55l-102 -316q-18 -55 -76 -55h-16q-77 0 -56 76z" />
<glyph unicode="&#x201a;" horiz-adv-x="462" d="M78 -158l74 314q12 59 73 59h49q37 0 52.5 -22t3.5 -54l-103 -315q-18 -55 -75 -55h-17q-72 0 -57 73z" />
<glyph unicode="&#x201c;" horiz-adv-x="729" d="M94 1100l103 315q18 53 75 53h19q70 0 55 -73l-72 -312q-12 -61 -73 -61h-51q-37 0 -52.5 21.5t-3.5 56.5zM395 1100l103 315q18 53 75 53h19q70 0 55 -73l-72 -312q-15 -61 -73 -61h-51q-37 0 -52.5 21.5t-3.5 56.5z" />
<glyph unicode="&#x201d;" horiz-adv-x="724" d="M98 1098l72 311q12 59 74 59h51q37 0 52 -20t3 -55l-102 -316q-18 -55 -78 -55h-16q-77 0 -56 76zM397 1098l74 311q12 59 74 59h51q76 0 55 -75l-102 -316q-21 -55 -78 -55h-16q-73 0 -58 76z" />
<glyph unicode="&#x201e;" horiz-adv-x="763" d="M78 -158l74 314q12 59 73 59h51q37 0 52 -20.5t4 -55.5l-103 -315q-21 -55 -77 -55h-17q-72 0 -57 73zM379 -158l74 314q12 59 71 59h51q38 0 53 -20.5t3 -55.5l-101 -315q-21 -55 -77 -55h-19q-70 0 -55 73z" />
<glyph unicode="&#x2026;" horiz-adv-x="1525" d="M127 68v79q0 68 68 68h73q68 0 68 -68v-79q0 -68 -68 -68h-73q-68 0 -68 68zM659 68v79q0 68 66 68h74q67 0 67 -68v-79q0 -68 -67 -68h-74q-66 0 -66 68zM1190 68v79q0 68 67 68h74q68 0 68 -68v-79q0 -68 -68 -68h-74q-67 0 -67 68z" />
<glyph unicode="&#x202f;" horiz-adv-x="365" />
<glyph unicode="&#x2039;" horiz-adv-x="657" d="M102 530q-41 48 0 95l265 336q32 38 84 38h41q42 0 53.5 -24.5t-15.5 -56.5l-268 -340l268 -338q27 -35 19 -58.5t-49 -23.5h-49q-51 0 -84 39z" />
<glyph unicode="&#x203a;" horiz-adv-x="657" d="M109.5 974.5q9.5 24.5 50.5 24.5h49q50 0 82 -38l266 -336q41 -47 0 -95l-266 -333q-33 -39 -82 -39h-43q-43 0 -54 23.5t15 58.5l268 338l-268 340q-27 32 -17.5 56.5z" />
<glyph unicode="&#x205f;" horiz-adv-x="456" />
<glyph unicode="&#x20ac;" horiz-adv-x="1226" d="M82 594q0 63 61 63h52q-9 65 0 148h-50q-63 0 -63 65q0 66 63 66h72q65 239 254 385q189 149 440 149q46 0 138 -10q72 -12 51 -82l-15 -55q-15 -60 -69 -51q-72 10 -109 10q-169 0 -295.5 -93.5t-177.5 -252.5h500q73 0 61 -68q-12 -63 -75 -63h-517q-9 -71 0 -148h478 q76 0 61 -67q-9 -62 -74 -62h-430q46 -162 176 -262q128 -98 299 -98q69 0 121 10q68 12 80 -49l12 -55q15 -68 -51 -80q-93 -19 -164 -19q-258 0 -448 152q-190 155 -248 401h-72q-61 0 -61 66z" />
<glyph unicode="&#x2122;" horiz-adv-x="1976" d="M82 1372v10q0 64 68 64h643q67 0 67 -64v-10q0 -63 -67 -63h-244v-697q0 -67 -68 -67h-20q-68 0 -68 67v697h-243q-68 0 -68 63zM930 614l63 768q3 64 68 64h22q60 0 80 -51l189 -420l28 -86h4q8 34 29 86l189 420q20 51 79 51h23q65 0 68 -64l61 -768q3 -69 -66 -69h-20 q-62 0 -68 63l-37 475l3 62h-5l-174 -381q-21 -53 -77 -53h-13q-57 0 -78 53l-174 381h-4l2 -62l-39 -475q-3 -63 -67 -63h-21q-68 0 -65 69z" />
<glyph unicode="&#x25fc;" horiz-adv-x="1034" d="M0 0v1034h1034v-1034h-1034z" />
</font>
</defs>
</svg>
