<?xml version="1.0" standalone="no"?>
<!DOCTYPE svg PUBLIC "-//W3C//DTD SVG 1.1//EN" "http://www.w3.org/Graphics/SVG/1.1/DTD/svg11.dtd" >
<svg xmlns="http://www.w3.org/2000/svg" xmlns:xlink="http://www.w3.org/1999/xlink" version="1.1">
<metadata></metadata>
<defs>
<font id="museo_sans_rounded300" horiz-adv-x="1032" >
<font-face units-per-em="2048" ascent="1536" descent="-512" />
<missing-glyph horiz-adv-x="512" />
<glyph horiz-adv-x="0" />
<glyph horiz-adv-x="682" />
<glyph unicode=" "  horiz-adv-x="512" />
<glyph unicode="&#x09;" horiz-adv-x="512" />
<glyph unicode="&#xa0;" horiz-adv-x="512" />
<glyph unicode="!" horiz-adv-x="509" d="M176 51v60q0 51 49 51h62q49 0 49 -51v-60q0 -51 -49 -51h-62q-49 0 -49 51zM182 1389q0 51 51 51h43q50 0 50 -51l-7 -963q0 -49 -49 -49h-30q-52 0 -52 49z" />
<glyph unicode="&#x22;" horiz-adv-x="624" d="M127 1100v311q0 49 51 49h21q49 0 49 -49v-311q0 -51 -49 -51h-21q-51 0 -51 51zM377 1100v311q0 49 49 49h20q50 0 50 -49v-311q0 -51 -50 -51h-20q-49 0 -49 51z" />
<glyph unicode="#" horiz-adv-x="1449" d="M88 453l2 16q9 45 55 45h244l72 401h-236q-53 0 -47 54l4 16q6 45 54 45h243l64 365q9 45 55 45h23q56 0 47 -54l-64 -356h354l64 365q9 45 55 45h23q56 0 47 -54l-64 -356h232q56 0 47 -53l-2 -16q-9 -46 -55 -46h-240l-72 -401h232q54 0 45 -53l-2 -17q-6 -45 -56 -45 h-239l-62 -354q-6 -45 -55 -45h-22q-54 0 -48 53l62 346h-354l-62 -354q-6 -45 -55 -45h-23q-53 0 -47 53l62 346h-234q-56 0 -47 54zM514 514h354l72 401h-354z" />
<glyph unicode="$" horiz-adv-x="1071" d="M111 1077q0 145 104 252q105 108 272 129v144q0 51 50 51h16q49 0 49 -47v-144q179 -9 305 -108q40 -24 13 -70l-19 -33q-23 -39 -70 -12q-128 90 -272 90q-136 0 -219 -74q-84 -75 -84 -174q0 -157 256 -264q47 -18 71 -28t70.5 -30.5t73 -35t66 -39.5t63 -47t50.5 -53 t41.5 -63t24.5 -72t9 -84q0 -153 -102 -261q-103 -109 -277 -124v-140q0 -51 -49 -51h-16q-50 0 -50 47v144q-217 15 -364 147q-36 29 -6 70l24 30q27 38 70 9q152 -125 338 -125q125 0 206 69t81 180q0 91 -70 160.5t-186 118.5l-213 96q-115 54 -185.5 140.5t-70.5 201.5z " />
<glyph unicode="%" horiz-adv-x="1470" d="M100 1180q0 116 84 200q87 84 205 84q119 0 203 -84t84 -200q0 -119 -84 -203q-82 -82 -203 -82q-123 0 -205 82q-84 84 -84 203zM150.5 17.5q-8.5 17.5 11.5 43.5l1026 1348q22 31 61 31h31q33 0 42 -18t-11 -44l-1026 -1347q-22 -31 -62 -31h-33q-31 0 -39.5 17.5z M223 1180q0 -72 48.5 -121t117.5 -49t117.5 49t48.5 121q0 69 -48.5 119.5t-117.5 50.5t-117.5 -50.5t-48.5 -119.5zM793 258q0 119 84 203q87 84 204 84q119 0 203 -84q86 -83 86 -203q0 -118 -86 -201q-82 -82 -203 -82q-119 0 -204 82q-84 84 -84 201zM915 260 q0 -72 48.5 -121t117.5 -49t117.5 49t48.5 121q0 69 -48.5 119.5t-117.5 50.5t-117.5 -50.5t-48.5 -119.5z" />
<glyph unicode="&#x26;" horiz-adv-x="1304" d="M104 397q0 132 71 237.5t192 141.5v4q-20 4 -70 39q-129 97 -129 281q0 166 117 265t313 99h102q50 0 50 -51v-22q0 -52 -50 -52h-100q-125 0 -206 -68.5t-81 -178.5q0 -33 6 -64.5t26 -68.5t52.5 -64t90.5 -45.5t135 -18.5h303v154q0 49 51 49h39q51 0 51 -45v-158h145 q50 0 50 -49v-26q0 -51 -50 -51h-145v-211q0 -249 -126.5 -384t-350.5 -135q-216 0 -350 119q-136 121 -136 303zM250 406q0 -127 92 -213q93 -84 248 -84q336 0 336 389v207h-303q-181 0 -277 -79t-96 -220z" />
<glyph unicode="'" horiz-adv-x="370" d="M125 1165v246q0 49 49 49h23q49 0 49 -49v-246q0 -49 -49 -49h-23q-49 0 -49 49z" />
<glyph unicode="(" horiz-adv-x="542" d="M115 690q0 411 211 770q18 35 59 35h23q29 0 38.5 -16.5t-4.5 -42.5q-198 -360 -198 -746q0 -437 200 -825q12 -26 3 -43t-35 -17h-25q-43 0 -59 31q-213 393 -213 854z" />
<glyph unicode=")" horiz-adv-x="542" d="M92.5 -177q-9.5 18 3.5 44q201 387 201 823q0 384 -199 746q-13 26 -4 42.5t35 16.5h27q41 0 59 -35q211 -359 211 -770q0 -467 -211 -850q-21 -35 -61 -35h-23q-29 0 -38.5 18z" />
<glyph unicode="*" horiz-adv-x="976" d="M109 1153l8 29q15 49 63 30l248 -88l-8 265q-6 51 47 51h37q53 0 47 -51l-8 -265l250 88q48 22 63 -30l8 -29q18 -49 -33 -61l-251 -74v-4l159 -205q31 -45 -10 -72l-22 -16q-45 -31 -72 10l-148 217h-4l-145 -215q-30 -40 -72 -12l-24 16q-45 28 -9 70l160 207v4 l-252 74q-47 11 -32 61z" />
<glyph unicode="+" horiz-adv-x="1241" d="M86 571v19q0 51 51 51h422v471q0 51 49 51h27q49 0 49 -51v-471h420q51 0 51 -51v-19q0 -49 -51 -49h-420v-471q0 -51 -49 -51h-27q-49 0 -49 51v471h-422q-51 0 -51 49z" />
<glyph unicode="," horiz-adv-x="471" d="M59 -209l111 334q12 43 59 43h50q29 0 39 -16.5t-1 -42.5l-137 -334q-14 -39 -59 -39h-19q-58 0 -43 55z" />
<glyph unicode="-" horiz-adv-x="866" d="M143 567v27q0 51 50 51h481q49 0 49 -51v-27q0 -49 -49 -49h-481q-50 0 -50 49z" />
<glyph unicode="." horiz-adv-x="448" d="M141 51v70q0 49 49 49h68q49 0 49 -49v-70q0 -51 -49 -51h-68q-49 0 -49 51z" />
<glyph unicode="/" horiz-adv-x="788" d="M88 -29l487 1508q15 41 58 41h29q26 0 36 -15.5t4 -42.5l-487 -1507q-15 -41 -57 -41h-29q-26 0 -37 15.5t-4 41.5z" />
<glyph unicode="0" horiz-adv-x="1269" d="M137 721q0 222 43 379q46 166 163.5 265t291.5 99q181 0 295 -102q111 -99 157 -254.5t46 -386.5q0 -746 -498 -746t-498 746zM285 721q0 -612 350 -612t350 612q0 610 -350 610t-350 -610z" />
<glyph unicode="1" horiz-adv-x="915" d="M94 51v25q0 51 51 51h273v1057l2 80h-4q-14 -28 -70 -84l-121 -119q-33 -36 -69 0l-19 20q-39 33 -2 70l264 262q27 27 62 27h47q49 0 49 -51v-1262h266q51 0 51 -51v-25q0 -51 -51 -51h-678q-51 0 -51 51z" />
<glyph unicode="2" horiz-adv-x="1128" d="M106 51v41q0 198 148 346q58 58 143 123l156 111q67 46 111.5 82t89.5 84t67.5 101.5t22.5 113.5q0 122 -82.5 199t-216.5 77q-180 0 -293 -155q-34 -40 -72 -13l-22 19q-40 27 -13 67q58 83 156 148q100 69 252 69q199 0 319 -114q121 -115 121 -289q0 -108 -52 -206 t-138 -167l-176 -131l-176 -127q-86 -60 -138.5 -139.5t-52.5 -163.5h705q51 0 51 -51v-25q0 -51 -51 -51h-803q-56 0 -56 51z" />
<glyph unicode="3" horiz-adv-x="1130" d="M104 211l25 31q28 35 70 4q153 -135 329 -135q134 0 232 88t98 223q0 147 -106 225q-104 82 -256 82h-58q-40 0 -55 37l-6 10q-15 34 12 68l334 391l76 80v4q-41 -6 -117 -6h-489q-52 0 -52 51v25q0 51 52 51h739q51 0 51 -47v-11q0 -38 -22 -63l-408 -469 q58 -4 115.5 -18.5t119.5 -46.5t109 -77.5t77 -118.5t30 -163q0 -187 -136 -320q-134 -131 -338 -131q-227 0 -421 164q-34 34 -5 72z" />
<glyph unicode="4" horiz-adv-x="1204" d="M55 449v8q0 36 19 61l667 891q25 31 62 31h63q49 0 49 -51v-867h156q49 0 49 -49v-24q0 -50 -45 -50h-160v-348q0 -51 -49 -51h-41q-51 0 -51 51v348h-670q-49 0 -49 50zM225 522h549v604l8 138h-4q-39 -67 -71 -111l-482 -627v-4z" />
<glyph unicode="5" horiz-adv-x="1120" d="M127 143q-35 35 0 70l25 29q34 34 69 0q119 -131 291 -131q150 0 254 96q104 94 104 242q0 149 -104 243q-107 96 -260 96q-108 0 -230 -61q-34 -18 -67 -6l-14 4q-40 15 -37 59l67 609q6 47 54 47h598q51 0 51 -51v-25q0 -51 -51 -51h-523l-41 -369l-14 -82h4 q89 56 219 56q217 0 355 -138q141 -135 141 -331t-146 -336q-144 -138 -354 -138q-229 0 -391 168z" />
<glyph unicode="6" horiz-adv-x="1198" d="M123 649q0 113 22.5 225t73 219.5t122.5 189t179.5 131.5t235.5 50q126 0 217 -39q46 -18 28 -65l-14 -33q-18 -41 -65 -29q-76 33 -164 33q-210 0 -336 -172q-125 -176 -146 -409h5q55 79 154 125.5t216 46.5q194 0 320 -129q125 -125 125 -332q0 -220 -129 -352 q-131 -134 -324 -134q-233 0 -377 191q-143 189 -143 483zM276 545q0 -151 105 -295q108 -141 260 -141q142 0 226.5 96t84.5 252q0 154 -90 246t-239 92q-137 0 -244 -78q-103 -77 -103 -172z" />
<glyph unicode="7" horiz-adv-x="1030" d="M59 1364v25q0 51 52 51h833q51 0 51 -47v-19q0 -35 -14 -63l-635 -1274q-18 -37 -59 -37h-41q-29 0 -39 16.5t2 42.5l553 1121l78 133v4q-46 -4 -107 -4h-622q-52 0 -52 51z" />
<glyph unicode="8" horiz-adv-x="1214" d="M121 406q0 85 29 159.5t79 126.5q80 82 131 115q-182 120 -182 293q0 151 113 258q112 106 323 106q200 0 320 -102q121 -103 121 -268q0 -97 -45 -193q-27 -61 -54.5 -104.5t-39.5 -56.5t-39 -40q210 -119 210 -311q0 -171 -137 -293q-136 -121 -340 -121 q-203 0 -346 119t-143 312zM266 416q0 -137 103 -226q103 -86 239 -86q129 0 232 80q102 82 102 201q0 59 -23 101.5t-77 78.5q-48 34 -97 58q-31 15 -135 61l-137 59q-207 -145 -207 -327zM322 1100q0 -42 19 -83.5t46 -70.5q31 -31 164 -102q28 -14 104 -45l105 -43 q153 153 153 323q0 118 -81.5 187t-217.5 69q-132 0 -212 -66.5t-80 -168.5z" />
<glyph unicode="9" horiz-adv-x="1198" d="M102 981q0 218 129 350q130 133 324 133q231 0 375 -190q145 -192 145 -483q0 -294 -149 -543q-74 -125 -201 -199t-283 -74q-119 0 -217 39q-47 18 -26 64l14 37q15 41 63 26q77 -32 164 -32q147 0 254 88q202 168 228 493h-4q-54 -78 -155 -125t-218 -47 q-192 0 -318 129q-125 131 -125 334zM248 983q0 -154 89 -246t241 -92q137 0 241 78q103 77 103 172q0 153 -107 293q-104 143 -258 143q-141 0 -225 -95.5t-84 -252.5z" />
<glyph unicode=":" horiz-adv-x="448" d="M145 51v62q0 51 52 51h59q49 0 49 -51v-62q0 -51 -49 -51h-59q-52 0 -52 51zM145 918v61q0 51 52 51h59q49 0 49 -51v-61q0 -52 -49 -52h-59q-52 0 -52 52z" />
<glyph unicode=";" horiz-adv-x="552" d="M121 -209l94 334q9 43 57 43h52q27 0 37.5 -16.5t0.5 -42.5l-120 -334q-14 -39 -60 -39h-18q-58 0 -43 55zM217 909v70q0 51 51 51h64q51 0 51 -51v-70q0 -49 -51 -49h-64q-51 0 -51 49z" />
<glyph unicode="&#x3c;" horiz-adv-x="1241" d="M125 571v21q0 43 39 57l829 371q26 12 42 2t16 -39v-33q0 -43 -39 -57l-713 -309v-4l713 -310q39 -14 39 -57v-33q0 -29 -16 -39.5t-42 0.5l-829 371q-39 17 -39 59z" />
<glyph unicode="=" horiz-adv-x="1241" d="M143 393v19q0 51 52 51h852q51 0 51 -51v-19q0 -49 -51 -49h-852q-52 0 -52 49zM143 750v18q0 51 52 51h852q51 0 51 -51v-18q0 -50 -51 -50h-852q-52 0 -52 50z" />
<glyph unicode="&#x3e;" horiz-adv-x="1241" d="M190 180v33q0 43 39 57l713 310v4l-713 309q-39 14 -39 57v33q0 29 16 39t42 -2l829 -371q39 -14 39 -57v-21q0 -42 -39 -59l-829 -369q-26 -12 -42 -2t-16 39z" />
<glyph unicode="?" horiz-adv-x="909" d="M96 1311q-33 42 10 69q130 86 289 86q176 0 293 -102t117 -260q0 -173 -127 -293l-107 -98q-130 -114 -133 -244l-2 -49q-3 -43 -47 -43h-39q-51 0 -51 51v47q0 82 35 154t92 125l104 96q127 111 127 248q0 100 -76 167.5t-192 67.5q-107 0 -207 -59q-48 -25 -69 12z M289 51v60q0 51 49 51h61q50 0 50 -51v-60q0 -51 -50 -51h-61q-49 0 -49 51z" />
<glyph unicode="@" horiz-adv-x="1591" d="M117 496q0 313 213 532t516 219q260 0 379 -110q123 -111 123 -277v-645h94q49 0 49 -51v-12q0 -52 -49 -52h-500q-175 0 -293 115q-117 117 -117 279t117 276q117 117 293 117h266q-5 108 -96 174.5t-256 66.5q-250 0 -424 -186q-172 -187 -172 -446q0 -246 158 -430 q157 -180 399 -195q49 -6 49 -51v-23q0 -52 -51 -49q-299 18 -500 234q-198 210 -198 514zM676 496q0 -116 80 -199q82 -82 198 -82h254v563h-250q-118 0 -202 -84q-80 -83 -80 -198z" />
<glyph unicode="A" horiz-adv-x="1247" d="M35 37q0 6 4 22l496 1340q12 41 55 41h67q44 0 56 -41l495 -1340q4 -16 4 -22q0 -37 -45 -37h-45q-45 0 -57 41l-154 418h-577l-152 -418q-12 -41 -57 -41h-43q-47 0 -47 37zM375 582h495l-190 522l-53 188h-4q-30 -105 -56 -188z" />
<glyph unicode="B" horiz-adv-x="1251" d="M201 51v1338q0 51 49 51h442q175 0 283 -99t108 -264q0 -222 -184 -313v-4q110 -31 176 -128.5t66 -228.5q0 -186 -123 -294q-124 -109 -309 -109h-459q-49 0 -49 51zM342 127h369q130 0 206 76t76 205t-78 206.5t-206 77.5h-367v-565zM342 815h350q109 0 176.5 70 t67.5 182q0 113 -65.5 179.5t-180.5 66.5h-348v-498z" />
<glyph unicode="C" horiz-adv-x="1454" d="M104 729q0 315 203 524q205 211 520 211q287 0 484 -153q20 -14 20 -37q0 -17 -12 -35l-19 -27q-14 -20 -36 -20q-15 0 -33 12q-183 127 -400 127q-256 0 -419 -172q-160 -171 -160 -428q0 -262 162 -442t424 -180q236 0 428 155q18 15 34 15q20 0 35 -21l19 -22 q14 -14 14 -35q0 -19 -18 -37q-222 -189 -516 -189q-324 0 -527 215q-203 218 -203 539z" />
<glyph unicode="D" horiz-adv-x="1497" d="M201 51v1338q0 51 49 51h416q328 0 524 -193q199 -190 199 -526q0 -340 -197 -531q-196 -190 -526 -190h-416q-49 0 -49 51zM342 127h309q273 0 431.5 156.5t158.5 437.5q0 280 -158.5 436t-431.5 156h-309v-1186z" />
<glyph unicode="E" horiz-adv-x="1132" d="M201 51v1338q0 51 49 51h711q51 0 51 -51v-25q0 -51 -51 -51h-619v-525h496q51 0 51 -49v-26q0 -51 -51 -51h-496v-535h655q52 0 52 -51v-25q0 -51 -52 -51h-747q-49 0 -49 51z" />
<glyph unicode="F" horiz-adv-x="1019" d="M201 51v1338q0 51 49 51h657q51 0 51 -51v-25q0 -51 -51 -51h-565v-541h479q49 0 49 -49v-27q0 -51 -49 -51h-479v-594q0 -51 -49 -51h-43q-49 0 -49 51z" />
<glyph unicode="G" horiz-adv-x="1531" d="M104 719q0 314 207 530q209 215 520 215q279 0 474 -137q22 -16 22 -37q0 -19 -14 -33l-19 -26q-16 -25 -39 -25q-14 0 -30 13q-175 112 -389 112q-258 0 -422 -176q-162 -174 -162 -432q0 -266 162 -440t409 -174q79 0 155 21t131 52.5t92 61t59 55.5l18 20v242h-197 q-49 0 -49 51v25q0 51 49 51h281q49 0 49 -51v-586q0 -51 -49 -51h-29q-51 0 -51 45v74l2 53h-4q-17 -22 -78 -70q-161 -122 -391 -127q-297 0 -504 213q-203 212 -203 531z" />
<glyph unicode="H" horiz-adv-x="1519" d="M201 51v1338q0 51 49 51h43q49 0 49 -51v-605h836v605q0 51 49 51h41q51 0 51 -51v-1338q0 -51 -51 -51h-41q-49 0 -49 51v606h-836v-606q0 -51 -49 -51h-43q-49 0 -49 51z" />
<glyph unicode="I" horiz-adv-x="542" d="M201 51v1338q0 51 49 51h43q49 0 49 -51v-1338q0 -51 -49 -51h-43q-49 0 -49 51z" />
<glyph unicode="J" horiz-adv-x="1044" d="M53 412q0 49 49 49h45q24 0 33.5 -11t14.5 -44q15 -297 262 -297q117 0 189.5 73.5t72.5 220.5v910h-301q-49 0 -49 51v25q0 51 49 51h393q51 0 51 -51v-986q0 -216 -119 -323q-120 -105 -286 -105q-168 0 -287 107q-117 108 -117 330z" />
<glyph unicode="K" horiz-adv-x="1193" d="M201 51v1338q0 51 49 51h43q49 0 49 -51v-574h244l366 590q21 35 60 35h51q31 0 41.5 -18t-6.5 -44l-393 -618v-4l421 -697q11 -18 11 -26q0 -5 -4 -17q-10 -16 -39 -16h-58q-38 0 -59 35l-391 653h-244v-637q0 -51 -49 -51h-43q-49 0 -49 51z" />
<glyph unicode="L" horiz-adv-x="1021" d="M201 51v1338q0 51 49 51h43q49 0 49 -51v-1262h616q52 0 52 -51v-25q0 -51 -52 -51h-708q-49 0 -49 51z" />
<glyph unicode="M" horiz-adv-x="1714" d="M150 53l108 1340q3 47 51 47h56q45 0 59 -39l360 -807l72 -176h4q46 124 70 176l360 807q17 39 60 39h55q48 0 51 -47l109 -1340v-6q0 -47 -49 -47h-41q-49 0 -52 47l-75 961l-7 200h-4q-45 -141 -73 -200l-324 -701q-14 -39 -57 -39h-49q-46 0 -60 39l-321 701l-76 204 h-4q0 -128 -6 -204l-76 -961q-3 -47 -51 -47h-41q-49 0 -49 47v6z" />
<glyph unicode="N" horiz-adv-x="1525" d="M201 51v1338q0 51 49 51h49q38 0 61 -33l713 -1004l119 -194h4q-12 120 -12 194v986q0 51 51 51h41q49 0 49 -51v-1338q0 -51 -49 -51h-49q-40 0 -60 33l-714 1003l-119 195h-4q12 -120 12 -195v-985q0 -51 -49 -51h-43q-49 0 -49 51z" />
<glyph unicode="O" horiz-adv-x="1673" d="M102 729q0 310 209 522q213 213 525 213q314 0 524 -213q209 -212 209 -522q0 -318 -209 -536t-524 -218q-313 0 -525 218q-209 218 -209 536zM250 729q0 -264 166 -442q169 -178 420 -178t417 178q168 177 168 442q0 259 -168 430q-166 172 -417 172t-420 -172 q-166 -172 -166 -430z" />
<glyph unicode="P" horiz-adv-x="1206" d="M201 51v1338q0 51 49 51h448q198 0 320 -119q125 -119 125 -315q0 -201 -125 -320q-124 -121 -320 -121h-356v-514q0 -51 -49 -51h-43q-49 0 -49 51zM342 692h338q147 0 232 84t85 230q0 143 -84.5 225t-230.5 82h-340v-621z" />
<glyph unicode="Q" horiz-adv-x="1673" d="M104 729q0 310 209 522q213 213 523 213q318 0 526 -211q209 -212 209 -524q0 -295 -180 -496l141 -143q20 -17 20 -37q0 -17 -18 -35l-16 -16q-18 -18 -37 -18q-15 0 -31 16l-143 145q-200 -170 -471 -170q-314 0 -523 218t-209 536zM252 729q0 -262 168 -442 q169 -178 416 -178q215 0 372 133l-141 145q-18 18 -18 35q0 19 16 35l16 16q18 21 37 21l33 -17l139 -145q133 168 133 397q0 257 -170 430q-169 172 -417 172q-247 0 -416 -172q-168 -171 -168 -430z" />
<glyph unicode="R" horiz-adv-x="1247" d="M201 51v1338q0 51 49 51h389q172 0 262 -41q213 -103 213 -361q0 -146 -74.5 -254t-197.5 -143v-4q20 -24 37 -57l280 -521q8 -13 8 -26q0 -9 -4 -17q-10 -16 -39 -16h-53q-41 0 -59 35l-307 571h-363v-555q0 -51 -49 -51h-43q-49 0 -49 51zM342 733h342q129 0 207 83 t78 218q0 86 -40 153t-112 99q-59 27 -188 27h-287v-580z" />
<glyph unicode="S" horiz-adv-x="1077" d="M102 166q0 14 13 33l24 30q15 21 37 21q18 0 35 -14q149 -125 332 -125q131 0 212 67.5t81 177.5q0 55 -22 100.5t-64 81t-88 61.5t-109 52l-152 72q-63 30 -108.5 60t-87.5 72.5t-64 99t-22 124.5q0 174 129 279q127 106 321 106q210 0 351 -112q22 -16 22 -39 q0 -12 -10 -29l-19 -33q-14 -26 -39 -26q-14 0 -32 12q-136 92 -277 92q-130 0 -215.5 -67t-85.5 -175q0 -70 39.5 -123.5t103 -89t139.5 -68t152.5 -69t140 -82t103 -118t39.5 -166.5q0 -170 -119 -283t-319 -113q-238 0 -422 152q-19 19 -19 39z" />
<glyph unicode="T" horiz-adv-x="1200" d="M12 1364v25q0 51 51 51h1074q51 0 51 -51v-25q0 -51 -51 -51h-467v-1262q0 -51 -49 -51h-41q-52 0 -52 51v1262h-465q-51 0 -51 51z" />
<glyph unicode="U" horiz-adv-x="1464" d="M180 502v887q0 51 51 51h41q52 0 52 -51v-885q0 -184 110 -289.5t297 -105.5q190 0 300 106.5t110 292.5v881q0 51 51 51h41q49 0 49 -51v-887q0 -237 -152 -383q-150 -144 -397 -144q-248 0 -401 144q-152 146 -152 383z" />
<glyph unicode="V" horiz-adv-x="1249" d="M33 1407q0 33 45 33h47q45 0 57 -41l383 -1053l56 -186h4q24 90 55 186l387 1053q12 41 55 41h49q46 0 46 -37q0 -3 -5 -23l-497 -1339q-15 -41 -58 -41h-67q-43 0 -55 41l-498 1339q-7 17 -4 27z" />
<glyph unicode="W" horiz-adv-x="1904" d="M86 1403q0 37 47 37h45q43 0 55 -45l269 -1073l33 -154h4q19 103 34 154l297 1075q12 43 56 43h47q43 0 55 -43l295 -1075l37 -154h4q11 71 31 154l280 1073q12 45 56 45h45q27 0 39 -15q8 -8 8 -22q0 -7 -4 -19l-357 -1341q-12 -43 -57 -43h-78q-45 0 -57 43l-266 971 l-52 215h-6q-24 -124 -51 -215l-268 -971q-12 -43 -56 -43h-79q-44 0 -56 45l-348 1339q-2 6 -2 19z" />
<glyph unicode="X" horiz-adv-x="1159" d="M55 33q0 8 11 26l421 693l-381 628q-17 25 -6.5 42.5t41.5 17.5h56q38 0 59 -35l231 -391l95 -166h4q51 108 88 166l233 391q21 35 60 35h55q31 0 41.5 -17.5t-6.5 -42.5l-385 -628l422 -693q12 -15 12 -28q0 -3 -4 -15q-10 -16 -41 -16h-51q-39 0 -60 35l-280 463 l-90 159h-5q-51 -100 -88 -161l-276 -461q-21 -35 -59 -35h-52q-31 0 -41 16q-4 12 -4 17z" />
<glyph unicode="Y" horiz-adv-x="1134" d="M35 1407q0 6 4 14q9 19 41 19h51q41 0 59 -35l287 -487l88 -173h4q67 135 88 173l287 487q18 35 57 35h54q29 0 39 -19q4 -8 4 -14q0 -14 -8 -27l-451 -762v-567q0 -51 -51 -51h-41q-49 0 -49 51v567l-453 762q-10 17 -10 27z" />
<glyph unicode="Z" horiz-adv-x="1177" d="M68 51v15q0 37 20 63l725 1053q63 92 100 131v4q-46 -4 -106 -4h-649q-49 0 -49 51v25q0 51 49 51h880q52 0 52 -49v-17q0 -36 -21 -63l-725 -1053q-63 -92 -100 -131v-4q46 4 106 4h697q49 0 49 -51v-25q0 -51 -49 -51h-928q-51 0 -51 51z" />
<glyph unicode="[" horiz-adv-x="546" d="M178 -143v1587q0 51 49 51h179q49 0 49 -51v-12q0 -52 -49 -52h-99v-1460h99q49 0 49 -51v-12q0 -52 -49 -52h-179q-49 0 -49 52z" />
<glyph unicode="\" horiz-adv-x="788" d="M86 1462q-15 58 43 58h27q42 0 57 -41l487 -1508q7 -26 -4 -41.5t-37 -15.5h-26q-45 0 -60 41z" />
<glyph unicode="]" horiz-adv-x="546" d="M92 -131q0 51 51 51h97v1460h-97q-51 0 -51 52v12q0 51 51 51h176q50 0 50 -51v-1587q0 -52 -50 -52h-176q-51 0 -51 52v12z" />
<glyph unicode="^" horiz-adv-x="1241" d="M176 571l363 830q17 39 59 39h12q43 0 60 -39l362 -830q21 -59 -39 -59h-28q-44 0 -58 39l-303 719l-303 -719q-17 -39 -59 -39h-27q-60 0 -39 59z" />
<glyph unicode="_" horiz-adv-x="1101" d="M23 -51q0 51 49 51h956q51 0 51 -51v-17q0 -51 -51 -51h-956q-49 0 -49 51v17z" />
<glyph unicode="`" d="M398.5 1766q7.5 18 39.5 18h47q39 0 60 -35l90 -152q14 -23 6.5 -40t-33.5 -17h-28q-39 0 -62 33l-108 149q-19 26 -11.5 44z" />
<glyph unicode="a" horiz-adv-x="1040" d="M70 276q0 355 628 355h60v33q0 266 -254 266q-127 0 -250 -72q-13 -8 -29 -8q-26 0 -41 24l-12 21q-10 20 -10 33q0 22 24 37q146 90 328 90q185 0 284 -102t99 -294v-608q0 -51 -49 -51h-33q-51 0 -51 51v82l6 78h-4q2 0 -10 -24.5t-38.5 -59t-65 -69t-100.5 -59 t-134 -24.5q-140 0 -246 80q-102 79 -102 221zM213 289q0 -82 62 -139.5t167 -57.5q143 0 228 119q88 119 88 266v49h-58q-67 0 -94 -2q-149 -6 -211 -30q-86 -31 -134 -77t-48 -128z" />
<glyph unicode="b" horiz-adv-x="1189" d="M160 51v1338q0 51 49 51h39q51 0 51 -51v-461l-8 -84h4l12 22q8 17 39 54.5t64 60.5q39 31 104 52.5t135 21.5q206 0 326 -150q123 -147 123 -389q0 -244 -131 -393q-130 -148 -334 -148q-206 0 -320 172l-24 43h-4q8 -27 8 -75v-68q0 -47 -51 -47h-33q-49 0 -49 51z M295 514q0 -168 84 -293q86 -121 242 -121q143 0 237 111q96 116 96 303q0 185 -91 299.5t-234 114.5q-147 0 -240.5 -108.5t-93.5 -305.5z" />
<glyph unicode="c" horiz-adv-x="1089" d="M88 514q0 236 154 387q157 154 387 154q198 0 342 -117q20 -14 20 -35q0 -18 -14 -35l-14 -22q-16 -23 -35 -23q-16 0 -35 13q-122 94 -260 94q-173 0 -287 -117q-115 -118 -115 -299q0 -179 115 -297q117 -117 289 -117q158 0 291 109q15 12 30 12q22 0 37 -24l15 -21 q8 -13 8 -29q0 -20 -21 -41q-162 -131 -366 -131q-234 0 -387 150q-154 151 -154 389z" />
<glyph unicode="d" horiz-adv-x="1189" d="M92 516q0 242 129 389q129 150 334 150t315 -168l23 -39h4q-6 34 -6 78v463q0 51 51 51h39q49 0 49 -51v-1338q0 -51 -49 -51h-35q-51 0 -51 49v78l8 63h-4l-10 -22q-10 -19 -41.5 -56t-63.5 -63q-42 -30 -108 -52t-135 -22q-205 0 -328 150q-121 151 -121 391zM236 516 q0 -189 89 -302.5t236 -113.5t240.5 108t93.5 308q0 170 -86 291q-83 121 -242 121q-143 0 -237 -113q-94 -110 -94 -299z" />
<glyph unicode="e" horiz-adv-x="1114" d="M90 514q0 244 146 393q148 148 362 148q201 0 315.5 -133.5t114.5 -358.5q0 -23 -15 -37t-38 -14h-742q3 -188 119 -301q114 -111 281 -111q149 0 270 95q20 10 33 10q19 0 35 -23l16 -24q8 -13 8 -29q0 -20 -22 -39q-157 -115 -344 -115q-230 0 -385 152 q-154 151 -154 387zM240 616h647q-6 152 -87 238t-206 86q-135 0 -232.5 -87t-121.5 -237z" />
<glyph unicode="f" horiz-adv-x="624" d="M63 954v17q0 51 50 51h82v47q0 112 36.5 193.5t98.5 119.5q114 68 211 68h22q49 0 49 -51v-25q0 -46 -55 -49q-81 -3 -143 -43q-80 -54 -80 -215v-45h213q49 0 49 -51v-17q0 -49 -49 -49h-213v-854q0 -51 -51 -51h-39q-49 0 -49 51v854h-82q-50 0 -50 49z" />
<glyph unicode="g" horiz-adv-x="1175" d="M94 541q0 230 121 372q124 142 334 142q225 0 328 -170l8 -19h4q-4 20 -4 35v84q0 45 49 45h33q51 0 51 -51v-954q0 -228 -144 -342q-140 -113 -346 -113q-163 0 -297 61q-30 15 -30 39q0 12 6 27l12 29q14 26 41 26q5 0 25 -4q118 -53 239 -53q160 0 257.5 83.5 t97.5 239.5v107l6 74h-4q-102 -193 -328 -193q-207 0 -334 148q-125 146 -125 387zM238 545q0 -192 90.5 -303t244.5 -111q142 0 225 99t83 300q0 205 -85 302.5t-235 97.5q-154 0 -238.5 -102t-84.5 -283z" />
<glyph unicode="h" horiz-adv-x="1198" d="M160 51v1338q0 51 49 51h39q51 0 51 -51v-515l-8 -83h4q38 96 145 178q112 86 267 86q182 0 264 -99t82 -301v-604q0 -51 -49 -51h-39q-52 0 -52 51v567q0 76 -7 122.5t-29 88.5q-47 95 -189 95q-161 0 -276 -121q-113 -119 -113 -305v-447q0 -51 -51 -51h-39 q-49 0 -49 51z" />
<glyph unicode="i" horiz-adv-x="456" d="M154 1315v74q0 51 49 51h51q49 0 49 -51v-74q0 -49 -49 -49h-51q-49 0 -49 49zM158 51v928q0 51 51 51h39q49 0 49 -51v-928q0 -51 -49 -51h-39q-51 0 -51 51z" />
<glyph unicode="j" horiz-adv-x="456" d="M-121 -348q0 46 51 49q79 3 146 49q84 50 84 217v1012q0 51 49 51h39q51 0 51 -51v-1016q0 -114 -38 -197.5t-101 -121.5q-110 -66 -209 -66h-21q-51 0 -51 51v23zM154 1315v74q0 51 49 51h51q49 0 49 -51v-74q0 -49 -49 -49h-51q-49 0 -49 49z" />
<glyph unicode="k" horiz-adv-x="995" d="M160 51v1338q0 51 49 51h39q51 0 51 -51v-752h166l285 362q25 31 61 31h51q31 0 40 -18t-11 -43l-311 -387v-4l356 -517q10 -17 10 -30q0 -3 -4 -15q-10 -16 -41 -16h-53q-39 0 -60 35l-321 479h-168v-463q0 -51 -51 -51h-39q-49 0 -49 51z" />
<glyph unicode="l" horiz-adv-x="499" d="M160 244v1145q0 51 49 51h39q51 0 51 -51v-1121q5 -87 32 -116t75 -33q43 -3 43 -45v-31q0 -51 -54 -51q-30 0 -57 4.5t-61.5 20t-58.5 41.5t-41 74t-17 112z" />
<glyph unicode="m" horiz-adv-x="1855" d="M158 51v928q0 51 51 51h37q49 0 49 -51v-119l-8 -74h4q41 110 149 187q110 82 230 82q274 0 317 -258h4q46 104 150 180q110 78 229 78q180 0 261 -99t81 -301v-604q0 -51 -51 -51h-37q-51 0 -51 51v570q0 155 -49 231t-172 76q-150 0 -248 -131t-98 -299v-447 q0 -51 -50 -51h-38q-52 0 -52 51v570q0 126 -35 208q-41 99 -182 99q-149 0 -252 -133q-100 -129 -100 -297v-447q0 -51 -49 -51h-39q-51 0 -51 51z" />
<glyph unicode="n" horiz-adv-x="1196" d="M158 51v928q0 51 51 51h37q49 0 49 -51v-119l-8 -74h4q43 100 145 181q107 88 271 88q182 0 264 -99t82 -301v-604q0 -51 -52 -51h-38q-50 0 -50 51v567q0 157 -48.5 231.5t-176.5 74.5q-163 0 -278 -121q-113 -119 -113 -299v-453q0 -51 -49 -51h-39q-51 0 -51 51z" />
<glyph unicode="o" horiz-adv-x="1259" d="M86 520q0 226 158 381q160 154 385 154q228 0 385 -154q160 -154 160 -381q0 -232 -160 -389q-156 -156 -383 -156q-228 0 -387 156q-158 158 -158 389zM229 520q0 -179 117 -299q118 -121 285 -121q164 0 282 121q117 120 117 299q0 174 -117 291q-116 119 -282 119 q-169 0 -285 -119q-117 -117 -117 -291z" />
<glyph unicode="p" horiz-adv-x="1189" d="M160 -358v1337q0 51 49 51h33q49 0 49 -47v-74l-6 -69h4l10 22q11 21 41.5 57.5t62.5 59.5q41 32 108 54t138 22q206 0 326 -150q123 -150 123 -391q0 -242 -131 -391q-130 -148 -332 -148q-68 0 -128.5 21t-99.5 53t-63.5 61t-36.5 54l-12 20h-4q8 -33 8 -90v-452 q0 -52 -51 -52h-39q-49 0 -49 52zM295 512q0 -167 88 -289q89 -123 238 -123q143 0 237 111q96 116 96 303q0 185 -91 299.5t-234 114.5q-147 0 -240.5 -108t-93.5 -308z" />
<glyph unicode="q" horiz-adv-x="1189" d="M92 516q0 242 129 389q129 150 336 150q206 0 320 -170l22 -41h4q-6 27 -6 69v72q0 45 51 45h33q49 0 49 -51v-1337q0 -52 -49 -52h-39q-51 0 -51 52v456l8 90h-4l-10 -22q-10 -18 -41 -54.5t-64 -62.5q-39 -31 -104.5 -52.5t-136.5 -21.5q-206 0 -326 150 q-121 151 -121 391zM236 516q0 -189 89 -302.5t236 -113.5t240.5 108t93.5 308q0 170 -86 291q-83 121 -242 121q-143 0 -237 -113q-94 -110 -94 -299z" />
<glyph unicode="r" horiz-adv-x="692" d="M158 51v928q0 51 51 51h37q49 0 49 -51v-139l-8 -82h4q40 122 129 200t203 78q53 0 53 -49v-37q0 -51 -58 -51q-152 0 -237 -141q-84 -144 -84 -322v-385q0 -51 -49 -51h-39q-51 0 -51 51z" />
<glyph unicode="s" horiz-adv-x="882" d="M82 131q0 15 12 33l17 20q15 21 34 21q17 0 35 -12q124 -95 273 -95q93 0 151 44.5t58 121.5q0 110 -195 180q-46 16 -71 25t-68.5 28t-68.5 34.5t-57 41t-49 52.5t-29.5 63.5t-12.5 77.5q0 133 98.5 211t251.5 78q163 0 282 -84q25 -16 25 -37q0 -14 -10 -31l-15 -22 q-16 -25 -36 -25q-13 0 -33 10q-97 66 -221 66q-91 0 -147 -41.5t-56 -118.5q0 -110 192 -184q48 -17 71 -25t68.5 -27.5t69.5 -34.5t57 -41t49.5 -52.5t29 -63t12.5 -78.5q0 -126 -99 -209q-94 -82 -249 -82q-209 0 -349 119q-20 14 -20 37z" />
<glyph unicode="t" horiz-adv-x="655" d="M63 954v17q0 51 50 51h88v242q0 51 51 51h37q49 0 49 -51v-242h209q51 0 51 -51v-17q0 -49 -51 -49h-209v-516q0 -258 225 -270q32 -5 43.5 -15t11.5 -36v-27q0 -49 -57 -49q-171 0 -266.5 99.5t-95.5 279.5v534h-86q-50 0 -50 49z" />
<glyph unicode="u" horiz-adv-x="1187" d="M145 375v604q0 51 50 51h38q52 0 52 -51v-567q0 -157 47.5 -231.5t175.5 -74.5q168 0 274 127q107 125 107 304v442q0 51 51 51h39q49 0 49 -51v-928q0 -51 -49 -51h-37q-49 0 -49 51v119l6 74h-4q-39 -99 -145 -183q-109 -86 -261 -86q-179 0 -261.5 97.5t-82.5 302.5z " />
<glyph unicode="v" horiz-adv-x="978" d="M35 997q0 33 45 33h45q43 0 55 -41l273 -715l34 -124h5q15 73 36 124l271 715q12 41 55 41h43q44 0 47 -33q0 -11 -6 -26l-358 -932q-12 -39 -56 -39h-67q-44 0 -58 39l-358 932q-6 15 -6 26z" />
<glyph unicode="w" horiz-adv-x="1630" d="M43 995q0 35 47 35h43q45 0 57 -43l236 -725l31 -110h4q1 6 33 110l239 723q12 41 58 41h49q45 0 57 -41l240 -723l32 -110h5q11 56 30 110l236 725q12 43 57 43h43q45 0 45 -35q0 -6 -4 -22l-315 -930q-12 -43 -58 -43h-63q-46 0 -58 43l-239 690l-31 111h-4 q-15 -58 -33 -111l-237 -690q-12 -43 -58 -43h-63q-45 0 -60 43l-315 930q-4 16 -4 22z" />
<glyph unicode="x" horiz-adv-x="958" d="M57 31q0 12 11 30l321 476l-291 432q-17 26 -7.5 43.5t40.5 17.5h51q40 0 58 -35l202 -311l35 -59h4l35 59l201 311q21 35 59 35h51q31 0 40.5 -17.5t-7.5 -43.5l-293 -432l322 -476q10 -17 10 -30q0 -9 -2 -15q-10 -16 -41 -16h-49q-38 0 -59 35l-232 352l-35 57h-4 l-35 -57l-231 -352q-21 -35 -59 -35h-50q-31 0 -41 16q-4 12 -4 15z" />
<glyph unicode="y" horiz-adv-x="1005" d="M14 -354q0 11 9 26l12 23q16 29 41 29q5 0 20 -5q56 -26 90 -26q119 0 193 170l61 145l-405 963q-11 26 -0.5 42.5t39.5 16.5h47q43 0 57 -39l289 -712l37 -109h4q15 60 35 109l282 710q15 41 58 41h45q29 0 39 -16q6 -9 6 -21q0 -6 -4 -22l-486 -1180 q-42 -104 -120 -162.5t-177 -58.5q-68 0 -141 37q-31 15 -31 39z" />
<glyph unicode="z" horiz-adv-x="1005" d="M70 45v14q0 34 20 60l553 694l82 94v4q-46 -4 -102 -4h-480q-49 0 -49 49v23q0 51 49 51h721q49 0 49 -45v-14q0 -34 -20 -60l-555 -694l-84 -94v-4q50 4 104 4h527q49 0 49 -49v-23q0 -51 -49 -51h-766q-49 0 -49 45z" />
<glyph unicode="{" horiz-adv-x="628" d="M61 641v41q0 31 41 55q134 50 134 224v167q0 112 30.5 192t79.5 114q86 61 160 61h16q49 0 49 -49v-19q0 -51 -49 -51q-18 0 -34 -3.5t-40 -18.5t-41 -40.5t-29.5 -75.5t-12.5 -118v-196q0 -55 -16.5 -103t-42 -77.5t-48 -47t-41.5 -24.5l-16 -8v-5q7 -2 18 -6.5t39 -25 t50 -46.5t39.5 -74.5t17.5 -107.5v-223q0 -68 12.5 -118t29.5 -75.5t41 -40.5t40 -18.5t34 -3.5q49 0 49 -49v-18q0 -52 -49 -52h-16q-73 0 -160 62q-49 34 -79.5 114.5t-30.5 192.5v195q0 165 -134 221q-41 24 -41 55z" />
<glyph unicode="|" horiz-adv-x="479" d="M176 -270v1835q0 49 49 49h29q51 0 51 -49v-1835q0 -52 -51 -52h-29q-49 0 -49 52z" />
<glyph unicode="}" horiz-adv-x="630" d="M57 -129q0 49 52 49q46 0 92 39q63 50 63 217v223q0 58 16.5 106t41.5 77.5t47.5 46.5t42.5 24l16 6v5q-7 2 -18 7.5t-39 26.5t-50 47.5t-39.5 74.5t-17.5 104v196q0 167 -63 217q-46 39 -92 39q-52 0 -52 51v19q0 49 52 49h14q26 0 55.5 -6.5t69.5 -29.5t70.5 -60.5 t52.5 -108t22 -162.5v-167q0 -174 135 -224q39 -20 39 -55v-41q0 -34 -41 -55q-133 -56 -133 -221v-195q0 -113 -29.5 -193.5t-80.5 -113.5q-87 -62 -160 -62h-14q-52 0 -52 52v18z" />
<glyph unicode="~" horiz-adv-x="1198" d="M137 498q27 247 256 247q64 0 111 -20q50 -21 82 -53l61 -66q67 -74 154 -74q63 0 97.5 45t41.5 113q12 47 53 47h23q53 0 47 -53q-21 -264 -256 -264q-69 0 -128.5 31.5t-94.5 74.5q-36 45 -84.5 76t-100.5 31q-65 0 -98.5 -44t-40.5 -114q-12 -47 -55 -47h-21 q-53 0 -47 70z" />
<glyph unicode="&#xa2;" horiz-adv-x="1136" d="M109 721q0 236 112 389q116 161 318 182v121q0 51 49 51h16q49 0 49 -45v-127q115 -12 210 -80t151 -176q20 -45 -27 -65l-37 -15q-39 -14 -65 25q-101 180 -283 180q-167 0 -257.5 -120.5t-90.5 -321.5q0 -200 90 -319t258 -119q182 0 283 180q22 38 65 22l37 -14 q48 -20 27 -66q-59 -109 -152.5 -177.5t-208.5 -78.5v-122q0 -52 -49 -52h-16q-49 0 -49 52v122q-201 21 -318 181q-112 156 -112 393z" />
<glyph unicode="&#xa3;" horiz-adv-x="1157" d="M111 51v25q0 51 51 51h80v541h-49q-50 0 -50 49v12q0 51 50 51h49v305q0 165 118 271q120 108 304 108q153 0 280 -86q44 -28 6 -69l-20 -27q-26 -34 -70 -8q-96 57 -194 57q-128 0 -204.5 -71.5t-76.5 -182.5v-297h342q49 0 49 -51v-12q0 -49 -49 -49h-342v-541h643 q51 0 51 -51v-25q0 -51 -51 -51h-866q-51 0 -51 51z" />
<glyph unicode="&#xa5;" horiz-adv-x="1185" d="M76.5 1422.5q10.5 17.5 40.5 17.5h51q41 0 59 -37l277 -475l88 -183h4q47 110 88 183l277 475q18 37 57 37h53q30 0 40.5 -17.5t-3.5 -42.5l-328 -559h164q51 0 51 -47v-12q0 -45 -51 -45h-223l-55 -101v-79h278q51 0 51 -45v-13q0 -47 -51 -47h-278v-381q0 -51 -50 -51 h-43q-51 0 -51 51v381h-282q-52 0 -52 47v13q0 45 52 45h282v79l-57 101h-225q-52 0 -52 45v12q0 47 48 47h170l-326 559q-14 25 -3.5 42.5z" />
<glyph unicode="&#xa8;" d="M299 1657v76q0 51 49 51h27q49 0 49 -51v-76q0 -49 -49 -49h-27q-49 0 -49 49zM608 1657v76q0 51 49 51h27q51 0 51 -51v-76q0 -49 -51 -49h-27q-49 0 -49 49z" />
<glyph unicode="&#xa9;" horiz-adv-x="1685" d="M115 721q0 309 211 526t514 217q307 0 518 -217q213 -219 213 -526q0 -312 -213 -531q-212 -215 -518 -215q-302 0 -514 215q-211 217 -211 531zM236 721q0 -270 174 -453q176 -182 430 -182q260 0 436 182q176 185 176 453q0 267 -178 448q-176 185 -434 185 q-254 0 -430 -185q-174 -180 -174 -448zM436 717q0 170 115 297q113 125 309 125q181 0 305 -148q28 -36 -6 -63l-20 -19q-34 -27 -64 11q-87 106 -211 106q-139 0 -223 -88.5t-84 -220.5q0 -127 82 -215q84 -90 225 -90q126 0 213 106q35 35 62 8l18 -16q36 -28 8 -64 q-129 -147 -305 -147q-197 0 -311 123q-113 122 -113 295z" />
<glyph unicode="&#xab;" horiz-adv-x="1009" d="M102 543q-30 35 0 69l283 359q22 28 61 28h35q32 0 40.5 -17.5t-11.5 -43.5l-287 -360l287 -359q20 -26 13 -43.5t-38 -17.5h-39q-39 0 -61 28zM471 543q-30 35 0 69l283 359q22 28 61 28h35q32 0 40.5 -17.5t-11.5 -43.5l-287 -360l287 -359q20 -26 13 -43.5t-38 -17.5 h-39q-39 0 -61 28z" />
<glyph unicode="&#xad;" horiz-adv-x="866" d="M143 567v27q0 51 50 51h481q49 0 49 -51v-27q0 -49 -49 -49h-481q-50 0 -50 49z" />
<glyph unicode="&#xae;" horiz-adv-x="1685" d="M115 721q0 309 211 526t514 217q307 0 518 -217q213 -219 213 -526q0 -312 -213 -531q-212 -215 -518 -215q-302 0 -514 215q-211 217 -211 531zM236 721q0 -270 174 -453q176 -182 430 -182q260 0 436 182q176 185 176 453q0 267 -178 448q-176 185 -434 185 q-254 0 -430 -185q-174 -180 -174 -448zM596 373v696q0 51 49 51h236q106 0 172.5 -65.5t66.5 -171.5q0 -82 -42.5 -139.5t-106.5 -71.5v-4q5 -5 26 -45l125 -242q14 -26 5.5 -42.5t-37.5 -16.5h-25q-43 0 -57 36l-144 287h-151v-272q0 -51 -49 -51h-19q-49 0 -49 51z M713 735h147q66 0 103.5 39.5t37.5 108.5q0 67 -37.5 104t-101.5 37h-149v-289z" />
<glyph unicode="&#xb4;" d="M390 1557q-10 17 7 40l90 152q21 35 60 35h47q32 0 39.5 -18t-10.5 -44l-109 -149q-23 -33 -61 -33h-23q-30 0 -40 17z" />
<glyph unicode="&#xb8;" d="M371 -371q0 52 32 52q3 0 23.5 -3.5t30.5 -3.5q100 0 100 70q0 63 -100 72q-19 2 -29 16t-6 37l39 166h88l-27 -148q65 -11 104.5 -49t39.5 -96q0 -81 -54 -121.5t-143 -40.5q-98 0 -98 49z" />
<glyph unicode="&#xbb;" horiz-adv-x="1009" d="M120.5 981.5q7.5 17.5 39.5 17.5h37q33 0 61 -28l283 -359q30 -34 0 -69l-283 -357q-28 -28 -61 -28h-35q-32 0 -40.5 17.5t11.5 43.5l285 359l-285 360q-20 26 -12.5 43.5zM487.5 981.5q7.5 17.5 38.5 17.5h37q36 0 64 -28l282 -359q30 -34 0 -69l-282 -357 q-28 -28 -64 -28h-33q-32 0 -40.5 17.5t10.5 43.5l286 359l-286 360q-20 26 -12.5 43.5z" />
<glyph unicode="&#xc2;" horiz-adv-x="1247" d="M39 59l496 1340q12 41 55 41h67q44 0 56 -41l495 -1340q15 -59 -41 -59h-45q-45 0 -57 41l-154 418h-577l-152 -418q-12 -41 -57 -41h-43q-58 0 -43 59zM375 582h495l-190 522l-53 188h-4q-30 -105 -56 -188zM406 1558q-7 18 10 44l106 149q23 33 62 33h75q38 0 64 -33 l104 -149q19 -26 13 -44t-35 -18h-35q-34 0 -55 35l-90 131h-4l-91 -131q-21 -35 -57 -35h-31q-29 0 -36 18z" />
<glyph unicode="&#xc7;" horiz-adv-x="1458" d="M106 729q0 315 203 524q205 211 520 211q287 0 484 -153q35 -28 8 -72l-18 -27q-27 -37 -70 -8q-183 127 -399 127q-257 0 -420 -172q-160 -171 -160 -428q0 -262 162 -442t424 -180q236 0 428 155q40 34 69 -6l19 -22q30 -38 -4 -72q-207 -183 -496 -189l-16 -88 q65 -11 104 -49t39 -96q0 -81 -54 -121.5t-143 -40.5q-98 0 -98 49q0 52 33 52q3 0 23 -3.5t30 -3.5q100 0 100 70q0 63 -100 72q-19 2 -29 16t-6 37l25 111q-296 24 -477 235t-181 514z" />
<glyph unicode="&#xce;" horiz-adv-x="542" d="M58 1558q-7 18 10 44l106 149q23 33 62 33h75q38 0 64 -33l104 -149q19 -26 13 -44t-35 -18h-35q-34 0 -55 35l-91 131h-4l-90 -131q-21 -35 -57 -35h-31q-29 0 -36 18zM201 51v1338q0 51 49 51h43q49 0 49 -51v-1338q0 -51 -49 -51h-43q-49 0 -49 51z" />
<glyph unicode="&#xd6;" horiz-adv-x="1673" d="M102 729q0 310 209 522q213 213 525 213q314 0 524 -213q209 -212 209 -522q0 -318 -209 -536t-524 -218q-313 0 -525 218q-209 218 -209 536zM250 729q0 -264 166 -442q169 -178 420 -178t417 178q168 177 168 442q0 259 -168 430q-166 172 -417 172t-420 -172 q-166 -172 -166 -430zM618 1657v76q0 51 50 51h26q49 0 49 -51v-76q0 -49 -49 -49h-26q-50 0 -50 49zM928 1657v76q0 51 49 51h27q51 0 51 -51v-76q0 -49 -51 -49h-27q-49 0 -49 49z" />
<glyph unicode="&#xdb;" horiz-adv-x="1464" d="M180 502v887q0 51 51 51h41q52 0 52 -51v-885q0 -184 110 -289.5t297 -105.5q190 0 300 106.5t110 292.5v881q0 51 51 51h41q49 0 49 -51v-887q0 -237 -152 -383q-150 -144 -397 -144q-248 0 -401 144q-152 146 -152 383zM514.5 1558q-7.5 18 9.5 44l107 149q23 33 61 33 h76q37 0 63 -33l105 -149q19 -26 12.5 -44t-35.5 -18h-34q-35 0 -56 35l-90 131h-4l-90 -131q-21 -35 -57 -35h-31q-29 0 -36.5 18z" />
<glyph unicode="&#xdc;" horiz-adv-x="1464" d="M180 502v887q0 51 51 51h41q52 0 52 -51v-885q0 -184 110 -289.5t297 -105.5q190 0 300 106.5t110 292.5v881q0 51 51 51h41q49 0 49 -51v-887q0 -237 -152 -383q-150 -144 -397 -144q-248 0 -401 144q-152 146 -152 383zM514 1657v76q0 51 49 51h27q49 0 49 -51v-76 q0 -49 -49 -49h-27q-49 0 -49 49zM823 1657v76q0 51 49 51h27q51 0 51 -51v-76q0 -49 -51 -49h-27q-49 0 -49 49z" />
<glyph unicode="&#xe2;" horiz-adv-x="1040" d="M70 276q0 355 628 355h60v33q0 266 -254 266q-127 0 -250 -72q-45 -22 -70 16l-12 21q-27 46 14 70q146 90 328 90q185 0 284 -102t99 -294v-608q0 -51 -49 -51h-33q-51 0 -51 51v82l6 78h-4q2 0 -10 -24.5t-38.5 -59t-65 -69t-100.5 -59t-134 -24.5q-140 0 -246 80 q-102 79 -102 221zM213 289q0 -82 62 -139.5t167 -57.5q143 0 228 119q88 119 88 266v49h-58q-67 0 -94 -2q-149 -6 -211 -30q-86 -31 -134 -77t-48 -128zM299.5 1216q-7.5 18 9.5 44l107 149q23 33 61 33h76q37 0 63 -33l105 -149q19 -26 12.5 -44t-35.5 -18h-34 q-35 0 -56 35l-90 131h-4l-90 -131q-21 -35 -57 -35h-31q-29 0 -36.5 18z" />
<glyph unicode="&#xe7;" horiz-adv-x="1093" d="M90 514q0 236 154 387q157 154 387 154q198 0 342 -117q38 -27 6 -70l-14 -22q-22 -38 -70 -10q-122 94 -260 94q-173 0 -287 -117q-115 -118 -115 -299q0 -179 115 -297q117 -117 289 -117q158 0 291 109q41 30 67 -12l15 -21q20 -37 -13 -70q-158 -128 -352 -131 l-16 -88q65 -11 104 -49t39 -96q0 -81 -54 -121.5t-143 -40.5q-98 0 -98 49q0 52 33 52q3 0 23 -3.5t30 -3.5q101 0 101 70q0 63 -101 72q-19 2 -29 16t-6 37l27 113q-201 21 -336 168q-129 147 -129 364z" />
<glyph unicode="&#xee;" horiz-adv-x="456" d="M15 1216q-7 18 10 44l106 149q23 33 62 33h75q38 0 64 -33l104 -149q19 -26 13 -44t-35 -18h-35q-34 0 -55 35l-91 131h-4l-90 -131q-21 -35 -57 -35h-31q-29 0 -36 18zM158 51v928q0 51 51 51h39q49 0 49 -51v-928q0 -51 -49 -51h-39q-51 0 -51 51z" />
<glyph unicode="&#xf6;" horiz-adv-x="1259" d="M86 520q0 226 158 381q160 154 385 154q228 0 385 -154q160 -154 160 -381q0 -232 -160 -389q-156 -156 -383 -156q-228 0 -387 156q-158 158 -158 389zM229 520q0 -179 117 -299q118 -121 285 -121q164 0 282 121q117 120 117 299q0 174 -117 291q-116 119 -282 119 q-169 0 -285 -119q-117 -117 -117 -291zM412 1315v76q0 51 49 51h26q50 0 50 -51v-76q0 -49 -50 -49h-26q-49 0 -49 49zM721 1315v76q0 51 49 51h27q51 0 51 -51v-76q0 -49 -51 -49h-27q-49 0 -49 49z" />
<glyph unicode="&#xfb;" horiz-adv-x="1187" d="M145 375v604q0 51 50 51h38q52 0 52 -51v-567q0 -157 47.5 -231.5t175.5 -74.5q168 0 274 127q107 125 107 304v442q0 51 51 51h39q49 0 49 -51v-928q0 -51 -49 -51h-37q-49 0 -49 51v119l6 74h-4q-39 -99 -145 -183q-109 -86 -261 -86q-179 0 -261.5 97.5t-82.5 302.5z M369.5 1216q-7.5 18 9.5 44l106 149q23 33 62 33h76q37 0 63 -33l105 -149q19 -26 12.5 -44t-35.5 -18h-35q-34 0 -55 35l-90 131h-4l-90 -131q-21 -35 -58 -35h-30q-29 0 -36.5 18z" />
<glyph unicode="&#xfc;" horiz-adv-x="1187" d="M145 375v604q0 51 50 51h38q52 0 52 -51v-567q0 -157 47.5 -231.5t175.5 -74.5q168 0 274 127q107 125 107 304v442q0 51 51 51h39q49 0 49 -51v-928q0 -51 -49 -51h-37q-49 0 -49 51v119l6 74h-4q-39 -99 -145 -183q-109 -86 -261 -86q-179 0 -261.5 97.5t-82.5 302.5z M369 1315v76q0 51 49 51h26q50 0 50 -51v-76q0 -49 -50 -49h-26q-49 0 -49 49zM678 1315v76q0 51 49 51h27q51 0 51 -51v-76q0 -49 -51 -49h-27q-49 0 -49 49z" />
<glyph unicode="&#x11e;" horiz-adv-x="1531" d="M104 719q0 314 207 530q209 215 520 215q279 0 474 -137q41 -31 8 -70l-19 -26q-27 -40 -69 -12q-175 112 -389 112q-258 0 -422 -176q-162 -174 -162 -432q0 -266 162 -440t409 -174q79 0 155 21t131 52.5t92 61t59 55.5l18 20v242h-197q-49 0 -49 51v25q0 51 49 51h281 q49 0 49 -51v-586q0 -51 -49 -51h-29q-51 0 -51 45v74l2 53h-4q-17 -22 -78 -70q-161 -122 -391 -127q-297 0 -504 213q-203 212 -203 531zM571 1745q0 39 47 39h21q41 0 47 -37q12 -117 121 -117q111 0 123 117q9 37 47 37h20q47 0 47 -39q0 -88 -71 -150q-70 -61 -166 -61 q-93 0 -164 59q-72 63 -72 152z" />
<glyph unicode="&#x11f;" horiz-adv-x="1175" d="M94 541q0 230 121 372q124 142 334 142q225 0 328 -170l8 -19h4q-4 20 -4 35v84q0 45 49 45h33q51 0 51 -51v-954q0 -228 -144 -342q-140 -113 -346 -113q-163 0 -297 61q-45 20 -24 66l12 29q19 37 66 22q118 -53 239 -53q160 0 257.5 83.5t97.5 239.5v107l6 74h-4 q-102 -193 -328 -193q-207 0 -334 148q-125 146 -125 387zM238 545q0 -192 90.5 -303t244.5 -111q142 0 225 99t83 300q0 205 -85 302.5t-235 97.5q-154 0 -238.5 -102t-84.5 -283zM336 1403q0 39 47 39h20q42 0 48 -37q12 -117 120 -117q111 0 123 117q9 37 47 37h21 q47 0 47 -39q0 -87 -72 -150q-70 -61 -166 -61q-92 0 -163 59q-72 63 -72 152z" />
<glyph unicode="&#x130;" horiz-adv-x="542" d="M201 51v1338q0 51 49 51h43q49 0 49 -51v-1338q0 -51 -49 -51h-43q-49 0 -49 51zM207 1661v72q0 51 49 51h35q49 0 49 -51v-72q0 -51 -49 -51h-35q-49 0 -49 51z" />
<glyph unicode="&#x131;" horiz-adv-x="456" d="M158 51v928q0 51 51 51h39q49 0 49 -51v-928q0 -51 -49 -51h-39q-51 0 -51 51z" />
<glyph unicode="&#x15e;" horiz-adv-x="1081" d="M115 199l24 30q30 38 72 7q149 -125 332 -125q131 0 212 67.5t81 177.5q0 55 -22 100.5t-64 81t-88 61.5t-109 52l-152 72q-63 30 -108.5 60t-87.5 72.5t-64 99t-22 124.5q0 174 129 279q127 106 321 106q210 0 351 -112q37 -26 12 -68l-19 -33q-25 -41 -71 -14 q-136 92 -277 92q-130 0 -215.5 -67t-85.5 -175q0 -70 39.5 -123.5t103 -89t139.5 -68t152.5 -69t140 -82t103 -118t39.5 -166.5q0 -161 -107 -271q-108 -111 -288 -123l-17 -90q65 -11 104.5 -49t39.5 -96q0 -81 -54 -121.5t-143 -40.5q-98 0 -98 49q0 52 33 52 q3 0 23 -3.5t30 -3.5q100 0 100 70q0 63 -100 72q-19 2 -29 16t-6 37l25 108q-213 15 -373 150q-32 32 -6 72z" />
<glyph unicode="&#x15f;" horiz-adv-x="886" d="M94 164l17 20q27 35 69 9q124 -95 273 -95q93 0 151 44.5t58 121.5q0 110 -195 180q-46 16 -71 25t-68.5 28t-68.5 34.5t-57 41t-49 52.5t-29.5 63.5t-12.5 77.5q0 133 98.5 211t251.5 78q163 0 282 -84q42 -25 15 -68l-15 -22q-22 -42 -69 -15q-97 66 -221 66 q-91 0 -147 -41.5t-56 -118.5q0 -110 192 -184q48 -17 71 -25t68.5 -27.5t69.5 -34.5t57 -41t49.5 -52.5t29 -63t12.5 -78.5q0 -119 -86.5 -199t-225.5 -90l-16 -90q65 -11 104 -49t39 -96q0 -81 -53.5 -121.5t-142.5 -40.5q-99 0 -99 49q0 52 33 52q3 0 23.5 -3.5 t30.5 -3.5q100 0 100 70q0 63 -100 72q-19 2 -29 16t-6 37l24 108q-179 15 -293 117q-37 27 -8 70z" />
<glyph unicode="&#x2c6;" d="M299.5 1558q-7.5 18 9.5 44l107 149q23 33 61 33h76q37 0 63 -33l105 -149q19 -26 12.5 -44t-35.5 -18h-34q-35 0 -56 35l-90 131h-4l-90 -131q-21 -35 -57 -35h-31q-29 0 -36.5 18z" />
<glyph unicode="&#x2da;" horiz-adv-x="1034" d="M364 1663q0 63 44 104t108.5 41t108.5 -41q47 -41 47 -104t-47 -104q-44 -41 -108.5 -41t-108.5 41t-44 104zM451 1663q0 -30 18 -49t47 -19q30 0 49 19t19 49q0 31 -18.5 50.5t-49.5 19.5q-29 0 -47 -19.5t-18 -50.5z" />
<glyph unicode="&#x2dc;" d="M201 1599q0 82 50.5 134.5t129.5 52.5q38 0 71 -15t56 -37t43.5 -44t44.5 -37t49 -15q36 0 57 29.5t23 73.5q0 39 47 39h16q43 0 43 -47q0 -89 -48 -141t-132 -52q-37 0 -76.5 20.5t-58 36.5t-55.5 52q-59 54 -106.5 28t-47.5 -96q-3 -35 -47 -35h-14q-45 0 -45 53z" />
<glyph unicode="&#x2000;" horiz-adv-x="904" />
<glyph unicode="&#x2001;" horiz-adv-x="1808" />
<glyph unicode="&#x2002;" horiz-adv-x="904" />
<glyph unicode="&#x2003;" horiz-adv-x="1808" />
<glyph unicode="&#x2004;" horiz-adv-x="602" />
<glyph unicode="&#x2005;" horiz-adv-x="452" />
<glyph unicode="&#x2006;" horiz-adv-x="301" />
<glyph unicode="&#x2007;" horiz-adv-x="301" />
<glyph unicode="&#x2008;" horiz-adv-x="226" />
<glyph unicode="&#x2009;" horiz-adv-x="361" />
<glyph unicode="&#x200a;" horiz-adv-x="100" />
<glyph unicode="&#x2010;" horiz-adv-x="866" d="M143 567v27q0 51 50 51h481q49 0 49 -51v-27q0 -49 -49 -49h-481q-50 0 -50 49z" />
<glyph unicode="&#x2011;" horiz-adv-x="866" d="M143 567v27q0 51 50 51h481q49 0 49 -51v-27q0 -49 -49 -49h-481q-50 0 -50 49z" />
<glyph unicode="&#x2012;" horiz-adv-x="866" d="M143 567v27q0 51 50 51h481q49 0 49 -51v-27q0 -49 -49 -49h-481q-50 0 -50 49z" />
<glyph unicode="&#x2013;" horiz-adv-x="1310" d="M143 571v19q0 51 52 51h921q51 0 51 -51v-19q0 -49 -51 -49h-921q-52 0 -52 49z" />
<glyph unicode="&#x2014;" horiz-adv-x="1720" d="M143 571v19q0 51 52 51h1331q51 0 51 -51v-19q0 -49 -51 -49h-1331q-52 0 -52 49z" />
<glyph unicode="&#x2018;" horiz-adv-x="411" d="M106 1098l101 319q15 41 57 41h15q52 0 40 -55l-75 -318q-9 -43 -54 -43h-43q-62 0 -41 56z" />
<glyph unicode="&#x2019;" horiz-adv-x="407" d="M109 1098l75 317q9 43 56 43h41q58 0 43 -55l-103 -320q-12 -41 -57 -41h-12q-55 0 -43 56z" />
<glyph unicode="&#x201a;" horiz-adv-x="452" d="M88 -195l78 318q9 45 53 45h43q57 0 41 -57l-100 -320q-15 -41 -58 -41h-14q-52 0 -43 55z" />
<glyph unicode="&#x201c;" horiz-adv-x="673" d="M106 1098l101 319q15 41 57 41h15q52 0 43 -55l-78 -318q-9 -43 -54 -43h-43q-62 0 -41 56zM367 1098l102 319q12 41 55 41h15q52 0 43 -55l-76 -318q-9 -43 -55 -43h-43q-56 0 -41 56z" />
<glyph unicode="&#x201d;" horiz-adv-x="669" d="M109 1098l75 317q9 43 56 43h43q26 0 37.5 -15t3.5 -40l-103 -320q-12 -41 -55 -41h-14q-55 0 -43 56zM371 1098l75 317q9 43 54 43h43q62 0 41 -55l-101 -320q-15 -41 -57 -41h-14q-53 0 -41 56z" />
<glyph unicode="&#x201e;" horiz-adv-x="712" d="M88 -195l78 318q9 45 53 45h43q57 0 41 -57l-100 -320q-15 -41 -58 -41h-14q-55 0 -43 55zM350 -195l76 318q9 45 55 45h41q58 0 43 -57l-102 -320q-12 -41 -57 -41h-13q-55 0 -43 55z" />
<glyph unicode="&#x2026;" horiz-adv-x="1409" d="M141 51v70q0 49 49 49h66q49 0 49 -49v-70q0 -51 -49 -51h-66q-49 0 -49 51zM623 51v70q0 49 49 49h65q49 0 49 -49v-70q0 -51 -49 -51h-65q-49 0 -49 51zM1104 51v70q0 49 49 49h66q49 0 49 -49v-70q0 -51 -49 -51h-66q-49 0 -49 51z" />
<glyph unicode="&#x202f;" horiz-adv-x="361" />
<glyph unicode="&#x2039;" horiz-adv-x="641" d="M102 543q-30 35 0 69l283 359q22 28 61 28h35q32 0 40.5 -17.5t-11.5 -43.5l-287 -360l287 -359q20 -26 13 -43.5t-38 -17.5h-39q-39 0 -61 28z" />
<glyph unicode="&#x203a;" horiz-adv-x="641" d="M120.5 981.5q7.5 17.5 39.5 17.5h37q33 0 61 -28l283 -359q30 -34 0 -69l-283 -357q-28 -28 -61 -28h-35q-32 0 -40.5 17.5t11.5 43.5l285 359l-285 360q-20 26 -12.5 43.5z" />
<glyph unicode="&#x205f;" horiz-adv-x="452" />
<glyph unicode="&#x20ac;" horiz-adv-x="1218" d="M86 596q0 53 49 53h64q-13 80 2 166h-66q-49 0 -49 51q0 54 49 54h84q58 241 248 393q189 151 438 151q45 0 144 -12q50 -9 38 -61l-10 -35q-12 -45 -55 -39q-58 12 -119 12q-193 0 -335.5 -110.5t-196.5 -298.5h569q57 0 45 -56q-9 -49 -57 -49h-580q-14 -64 -2 -166 h545q57 0 45 -55q-9 -49 -57 -49h-510q47 -195 192 -316q145 -118 346 -118q64 0 135 14q52 9 60 -35l8 -37q15 -47 -37 -59q-87 -19 -168 -19q-255 0 -448 158q-190 161 -242 412h-80q-49 0 -49 51z" />
<glyph unicode="&#x2122;" horiz-adv-x="1951" d="M84 1382v9q0 49 51 49h656q51 0 51 -49v-9q0 -49 -51 -49h-271v-741q0 -49 -51 -49h-14q-52 0 -52 49v741h-268q-51 0 -51 49zM920 596l65 797q3 47 51 47h15q42 0 59 -39l219 -475q23 -51 29 -84h4q6 33 29 84l219 475q14 39 59 39h14q49 0 52 -47l65 -797 q0 -53 -49 -53h-14q-48 0 -51 47l-48 561l2 59h-4l-213 -460q-14 -39 -57 -39h-12q-46 0 -60 39l-211 460h-4l2 -59l-49 -561q-3 -47 -51 -47h-12q-52 0 -49 53z" />
<glyph unicode="&#x25fc;" horiz-adv-x="1034" d="M0 0v1034h1034v-1034h-1034z" />
</font>
</defs>
</svg>
