<?xml version="1.0" standalone="no"?>
<!DOCTYPE svg PUBLIC "-//W3C//DTD SVG 1.1//EN" "http://www.w3.org/Graphics/SVG/1.1/DTD/svg11.dtd" >
<svg xmlns="http://www.w3.org/2000/svg" xmlns:xlink="http://www.w3.org/1999/xlink" version="1.1">
<metadata></metadata>
<defs>
<font id="museo_sans_rounded100" horiz-adv-x="872" >
<font-face units-per-em="2048" ascent="1536" descent="-512" />
<missing-glyph horiz-adv-x="512" />
<glyph horiz-adv-x="0" />
<glyph horiz-adv-x="682" />
<glyph unicode=" "  horiz-adv-x="512" />
<glyph unicode="&#x09;" horiz-adv-x="512" />
<glyph unicode="&#xa0;" horiz-adv-x="512" />
<glyph unicode="!" horiz-adv-x="491" d="M186 35v55q0 35 35 35h51q35 0 35 -35v-55q0 -35 -35 -35h-51q-35 0 -35 35zM201 393v1006q0 35 35 35h18q35 0 35 -35v-1006q0 -35 -35 -35h-18q-35 0 -35 35z" />
<glyph unicode="&#x22;" horiz-adv-x="579" d="M139 1096v321q0 35 35 35h19q34 0 34 -35v-321q0 -35 -34 -35h-19q-35 0 -35 35zM352 1096v321q0 35 35 35h19q34 0 34 -35v-321q0 -35 -34 -35h-19q-35 0 -35 35z" />
<glyph unicode="#" horiz-adv-x="1460" d="M92 444l2 15q6 30 39 30h279l80 453h-273q-39 0 -33 37l2 14q6 31 39 31h279l65 379q6 31 39 31h17q38 0 32 -37l-65 -373h387l66 379q6 31 38 31h17q39 0 33 -37l-66 -373h266q39 0 33 -37l-2 -14q-6 -31 -39 -31h-272l-80 -453h266q39 0 33 -36l-2 -15q-6 -30 -39 -30 h-272l-66 -377q-6 -31 -39 -31h-16q-39 0 -33 37l65 371h-387l-65 -377q-6 -31 -39 -31h-16q-39 0 -33 37l65 371h-272q-39 0 -33 36zM500 489h387l80 453h-387z" />
<glyph unicode="$" horiz-adv-x="1046" d="M119 178l14 17q21 24 49 2q154 -136 357 -136q137 0 227 78q92 77 92 205q0 76 -39.5 139.5t-105.5 106.5q-47 27 -146 74l-157 73q-51 24 -89 46t-78.5 54t-65.5 66.5t-41.5 81.5t-16.5 102q0 137 102 242q104 107 271 125v160q0 35 34 35h19q35 0 35 -35v-158 q184 -6 309 -110q25 -19 6 -48l-10 -18q-21 -27 -49 -6q-131 98 -285 98q-151 0 -246 -86q-94 -85 -94 -196q0 -59 25.5 -106.5t68 -81.5t98 -63.5t116.5 -55.5t122.5 -53.5t117 -63t98 -78.5t68 -104t25.5 -136q0 -150 -102 -254t-268 -117v-155q0 -35 -35 -35h-19 q-34 0 -34 35v155q-222 15 -371 152q-24 24 -2 49z" />
<glyph unicode="%" horiz-adv-x="1402" d="M111 1190q0 111 77 188q77 80 189 80q111 0 188 -80q80 -77 80 -188q0 -112 -80 -189q-77 -77 -188 -77q-112 0 -189 77t-77 189zM131 12q-6 12 8 31l1039 1370q18 21 43 21h26q23 0 29 -12t-8 -31l-1039 -1371q-17 -20 -43 -20h-26q-23 0 -29 12zM199 1190 q0 -77 51 -131t127 -54t127 54q54 54 54 131t-54 131q-51 55 -127 55t-127 -55q-51 -54 -51 -131zM758 242q0 110 78 188q77 80 188 80t188 -80q80 -77 80 -188q0 -112 -80 -189q-78 -78 -188 -78t-188 78t-78 189zM846 242q0 -77 51 -131t127 -54t127 54q54 54 54 131 t-54 131q-51 55 -127 55t-127 -55q-51 -54 -51 -131z" />
<glyph unicode="&#x26;" horiz-adv-x="1290" d="M115 391q0 137 72.5 243.5t197.5 141.5v4q-23 5 -74 37q-55 38 -94 108t-39 177q0 160 112.5 258t305.5 98h109q34 0 34 -35v-12q0 -35 -34 -35h-115q-138 0 -229 -75.5t-91 -196.5q0 -93 58 -182q33 -49 109.5 -78t183.5 -29h333v174q0 35 35 35h19q34 0 34 -35v-174 h164q35 0 35 -35v-12q0 -35 -35 -35h-164v-229q0 -260 -119.5 -394.5t-336.5 -134.5q-208 0 -340 117q-131 119 -131 299zM207 395q0 -145 104 -239.5t275 -94.5q368 0 368 443v229h-329q-203 0 -310.5 -90t-107.5 -248z" />
<glyph unicode="'" horiz-adv-x="358" d="M135 1178v239q0 35 35 35h18q35 0 35 -35v-239q0 -35 -35 -35h-18q-35 0 -35 35z" />
<glyph unicode="(" horiz-adv-x="524" d="M127 686q0 415 211 774q16 25 41 25h16q20 0 26.5 -11t-3.5 -30q-207 -375 -207 -760q0 -450 209 -838q21 -41 -23 -41h-16q-29 0 -41 21q-213 396 -213 860z" />
<glyph unicode=")" horiz-adv-x="524" d="M99 -183q-7 12 3 31q209 385 209 836q0 385 -207 760q-24 41 21 41h18q25 0 41 -25q211 -359 211 -774q0 -473 -211 -856q-16 -25 -43 -25h-14q-21 0 -28 12z" />
<glyph unicode="*" horiz-adv-x="983" d="M117 1155l6 19q9 34 43 22l285 -98l-9 301q-3 35 33 35h27q36 0 33 -35l-9 -301l287 98q35 9 43 -22l6 -19q12 -34 -22 -43l-287 -86v-4l180 -238q21 -30 -8 -49l-14 -10q-28 -21 -49 6l-170 246h-5l-170 -244q-22 -29 -49 -8l-16 10q-27 21 -6 49l180 238v4l-287 86 q-31 8 -22 43z" />
<glyph unicode="+" horiz-adv-x="1228" d="M86 573v13q0 35 35 35h450v503q0 35 35 35h19q34 0 34 -35v-503h449q35 0 35 -35v-13q0 -34 -35 -34h-449v-504q0 -35 -34 -35h-19q-35 0 -35 35v504h-450q-35 0 -35 34z" />
<glyph unicode="," horiz-adv-x="456" d="M68 -236l114 332q10 29 41 29h39q40 0 27 -41l-137 -332q-12 -26 -41 -26h-15q-42 0 -28 38z" />
<glyph unicode="-" d="M154 573v13q0 35 34 35h496q35 0 35 -35v-13q0 -34 -35 -34h-496q-34 0 -34 34z" />
<glyph unicode="." horiz-adv-x="432" d="M154 35v59q0 35 34 35h56q35 0 35 -35v-59q0 -35 -35 -35h-56q-34 0 -34 35z" />
<glyph unicode="/" horiz-adv-x="770" d="M94 -47l496 1534q13 29 41 29h18q19 0 27 -11t2 -28l-496 -1534q-13 -29 -41 -29h-18q-19 0 -27 11t-2 28z" />
<glyph unicode="0" horiz-adv-x="1265" d="M150 717q0 741 483 741t483 -741q0 -742 -483 -742t-483 742zM242 717q0 -292 80 -465q89 -191 311 -191t311 191q80 173 80 465q0 655 -391 655t-391 -655z" />
<glyph unicode="1" horiz-adv-x="874" d="M98 35v12q0 35 35 35h291v1167l2 72h-4q-15 -27 -76 -88l-145 -146q-25 -25 -49 0l-11 11q-27 24 -2 49l267 268q19 19 43 19h28q35 0 35 -35v-1317h283q34 0 34 -35v-12q0 -35 -34 -35h-662q-35 0 -35 35z" />
<glyph unicode="2" horiz-adv-x="1114" d="M115 35v41q0 97 40.5 185t110.5 153q62 62 148 123l164 114q56 39 93.5 69t80.5 71.5t68 80.5t42 89t17 104q0 135 -91.5 221t-242.5 86q-106 0 -191.5 -51.5t-136.5 -124.5q-22 -29 -49 -8l-8 6q-29 19 -10 47q150 217 397 217q199 0 311 -115q113 -113 113 -278 q0 -115 -58 -213q-52 -99 -139 -164l-184 -135l-184 -133q-90 -64 -143.5 -152.5t-53.5 -185.5h749q35 0 35 -35v-12q0 -35 -35 -35h-804q-39 0 -39 35z" />
<glyph unicode="3" horiz-adv-x="1122" d="M109 150q-25 24 0 49l16 16q21 21 49 0q160 -154 361 -154q141 0 249 99q109 103 109 254q0 161 -115 250q-115 92 -268 92h-70q-30 0 -39 26l-4 9q-8 23 9 47l382 448q34 43 64 66v4q-54 -4 -111 -4h-553q-34 0 -34 34v13q0 35 34 35h752q35 0 35 -31v-6q0 -26 -17 -43 l-446 -516q157 0 299 -84q80 -45 127 -134.5t47 -205.5q0 -183 -135 -312q-133 -127 -320 -127q-234 0 -421 175z" />
<glyph unicode="4" horiz-adv-x="1185" d="M61 444v2q0 28 15 43l712 924q18 21 43 21h21q35 0 35 -35v-907h178q35 0 35 -35v-13q0 -34 -35 -34h-178v-375q0 -35 -35 -35h-18q-35 0 -35 35v375h-703q-35 0 -35 34zM184 492h615v671l6 129h-4q-31 -47 -72 -98l-545 -698v-4z" />
<glyph unicode="5" horiz-adv-x="1107" d="M127 154q-21 28 6 49l17 12q28 21 49 -6q115 -148 311 -148q170 0 283 107q114 108 114 268q0 163 -114 271t-283 108q-133 0 -256 -72q-22 -15 -47 -6l-12 4q-28 9 -25 41l74 619q3 33 37 33h598q34 0 34 -35v-13q0 -34 -34 -34h-553l-52 -428l-14 -88h4q103 65 246 65 q205 0 346 -135q143 -134 143 -330q0 -193 -143 -327q-146 -134 -346 -134q-239 0 -383 179z" />
<glyph unicode="6" horiz-adv-x="1185" d="M133 645q0 286 141 537q71 126 196 201t280 75q124 0 217 -43q31 -11 16 -45l-10 -18q-16 -28 -47 -17q-75 37 -181 37q-156 0 -276 -102q-221 -186 -244 -557h4q60 91 169 143.5t237 52.5q193 0 315 -125q125 -125 125 -331q0 -224 -127 -351t-313 -127q-232 0 -367 193 q-135 194 -135 477zM233 539q0 -165 115 -322q114 -156 285 -156q160 0 255 108.5t95 283.5q0 169 -96.5 269.5t-255.5 100.5q-158 0 -279 -92q-119 -88 -119 -192z" />
<glyph unicode="7" horiz-adv-x="1007" d="M63 1386v13q0 35 35 35h838q35 0 35 -31v-8q0 -23 -10 -43l-658 -1327q-13 -25 -41 -25h-18q-46 0 -25 41l578 1178q36 74 75 133v4q-54 -4 -112 -4h-662q-35 0 -35 34z" />
<glyph unicode="8" horiz-adv-x="1204" d="M131 401q0 89 31.5 168t83.5 131q75 75 133 113q-191 114 -191 293q0 148 111 250q114 102 313 102q198 0 310 -100q114 -102 114 -262q0 -96 -47 -199q-71 -150 -139 -205q217 -120 217 -309q0 -169 -135 -289q-131 -119 -326 -119q-190 0 -334 117q-141 117 -141 309z M223 406q0 -150 115 -250q117 -97 264 -97q141 0 258 91q115 92 115 223t-111 202q-66 46 -108 66q-46 22 -148 64q-77 33 -147 65q-238 -148 -238 -364zM281 1108q0 -93 73 -170q29 -27 84 -59.5t101 -51.5l114 -49l113 -47q22 19 57 60t78 129q43 87 43 172 q0 129 -92.5 205.5t-241.5 76.5t-239 -75.5t-90 -190.5z" />
<glyph unicode="9" horiz-adv-x="1185" d="M111 981q0 223 127 350t313 127q233 0 367 -192q135 -193 135 -478q0 -283 -142 -536q-71 -127 -196 -202t-279 -75q-124 0 -217 43q-32 11 -16 43l10 23q13 29 47 14q81 -37 180 -37q158 0 277 101q221 192 244 559h-5q-60 -91 -169 -144t-236 -53q-193 0 -318 125 q-122 125 -122 332zM203 981q0 -169 96.5 -270t255.5 -101q157 0 279 90q118 90 118 195q0 166 -114 322q-113 155 -285 155q-160 0 -255 -108t-95 -283z" />
<glyph unicode=":" horiz-adv-x="425" d="M156 35v51q0 35 34 35h48q34 0 34 -35v-51q0 -35 -34 -35h-48q-34 0 -34 35zM156 938v51q0 35 34 35h48q34 0 34 -35v-51q0 -35 -34 -35h-48q-34 0 -34 35z" />
<glyph unicode=";" horiz-adv-x="548" d="M141 -236l97 332q10 29 41 29h38q42 0 27 -41l-119 -332q-9 -26 -41 -26h-14q-20 0 -27 9t-2 29zM233 930v59q0 35 35 35h56q34 0 34 -35v-59q0 -35 -34 -35h-56q-35 0 -35 35z" />
<glyph unicode="&#x3c;" horiz-adv-x="1228" d="M131 571v17q0 29 27 41l831 372q41 15 41 -26v-25q0 -29 -26 -41l-746 -327v-4l746 -328q26 -12 26 -41v-25q0 -41 -41 -26l-831 372q-27 12 -27 41z" />
<glyph unicode="=" horiz-adv-x="1228" d="M147 410v12q0 35 35 35h865q34 0 34 -35v-12q0 -35 -34 -35h-865q-35 0 -35 35zM147 737v13q0 34 35 34h865q34 0 34 -34v-13q0 -35 -34 -35h-865q-35 0 -35 35z" />
<glyph unicode="&#x3e;" horiz-adv-x="1228" d="M199 184v25q0 29 26 41l746 328v4l-746 327q-26 12 -26 41v25q0 41 41 26l831 -372q27 -12 27 -41v-17q0 -29 -27 -41l-831 -372q-41 -15 -41 26z" />
<glyph unicode="?" horiz-adv-x="886" d="M96 1327q-22 31 8 49q128 82 277 82q177 0 283 -100q110 -101 110 -252q0 -95 -37 -168q-37 -70 -94 -127l-108 -100q-132 -118 -132 -262v-56q0 -35 -34 -35h-19q-35 0 -35 35v56q0 92 37 165q37 70 94 127l107 103q129 118 129 264q0 113 -84.5 188.5t-214.5 75.5 q-124 0 -231 -67q-30 -17 -48 10zM299 35v55q0 35 35 35h51q35 0 35 -35v-55q0 -35 -35 -35h-51q-35 0 -35 35z" />
<glyph unicode="@" horiz-adv-x="1562" d="M127 498q0 310 209 528q210 219 500 219q247 0 360 -104q115 -106 115 -258v-705h108q35 0 35 -35v-12q0 -35 -35 -35h-508q-163 0 -280 117q-115 118 -115 281q0 164 115 282q116 119 280 119h308q-6 123 -98 195.5t-273 72.5q-265 0 -447 -194t-182 -471 q0 -268 170 -459q170 -188 424 -203q35 0 35 -35v-16q0 -35 -35 -35q-285 15 -487 232q-199 214 -199 516zM608 494q0 -131 90 -224q92 -92 224 -92h297v635h-293q-135 0 -226 -94q-92 -95 -92 -225z" />
<glyph unicode="A" horiz-adv-x="1224" d="M39 23q0 6 4 18l512 1364q10 29 39 29h37q29 0 39 -29l512 -1364q4 -12 4 -18q0 -23 -33 -23h-23q-29 0 -38 27l-177 469h-608l-174 -467q-10 -29 -39 -29h-22q-33 0 -33 23zM338 578h547l-217 581l-54 172h-4q-22 -81 -53 -172z" />
<glyph unicode="B" horiz-adv-x="1239" d="M215 35v1364q0 35 35 35h446q158 0 260 -99q103 -100 103 -260q0 -225 -187 -313v-4q110 -31 177 -130t67 -233q0 -180 -112 -286q-115 -109 -287 -109h-467q-35 0 -35 35zM303 82h406q146 0 230.5 83.5t84.5 229.5q0 142 -88.5 230t-228.5 88h-404v-631zM303 795h391 q122 0 197.5 76.5t75.5 203.5t-75 202t-200 75h-389v-557z" />
<glyph unicode="C" horiz-adv-x="1460" d="M115 727q0 313 200 522t510 209q295 0 488 -158q22 -22 4 -49l-10 -12q-22 -26 -50 -4q-195 139 -430 139q-271 0 -446 -184q-174 -180 -174 -463q0 -285 174 -477q176 -191 453 -191q254 0 460 170q25 22 49 -2l9 -10q10 -13 10 -22q0 -15 -12 -27q-211 -193 -516 -193 q-319 0 -519 218t-200 534z" />
<glyph unicode="D" horiz-adv-x="1499" d="M215 35v1364q0 35 35 35h416q324 0 518 -191q196 -190 196 -526q0 -338 -194 -529q-194 -188 -520 -188h-416q-35 0 -35 35zM303 82h348q291 0 463 166q174 165 174 469q0 302 -174 467q-171 168 -463 168h-348v-1270z" />
<glyph unicode="E" horiz-adv-x="1128" d="M215 35v1364q0 35 35 35h715q34 0 34 -35v-13q0 -34 -34 -34h-662v-588h537q34 0 34 -35v-12q0 -35 -34 -35h-537v-600h701q34 0 34 -35v-12q0 -35 -34 -35h-754q-35 0 -35 35z" />
<glyph unicode="F" horiz-adv-x="1005" d="M215 35v1364q0 35 35 35h653q35 0 35 -35v-13q0 -34 -35 -34h-600v-598h514q35 0 35 -35v-12q0 -35 -35 -35h-514v-637q0 -35 -35 -35h-18q-35 0 -35 35z" />
<glyph unicode="G" horiz-adv-x="1525" d="M115 717q0 313 204 526q206 215 510 215q273 0 474 -139q28 -22 4 -49l-11 -13q-19 -29 -49 -8q-180 125 -418 125q-267 0 -446 -188q-176 -188 -176 -469q0 -282 172 -469q177 -189 438 -189q86 1 166.5 24t140.5 59.5t98 67t66 60.5l21 25v276h-222q-34 0 -34 35v12 q0 35 34 35h275q35 0 35 -35v-583q0 -35 -35 -35h-19q-34 0 -34 35v90l2 61h-4q-20 -24 -82 -73q-52 -42 -99 -66q-61 -30 -144.5 -51t-164.5 -21q-298 0 -502 213q-200 215 -200 529z" />
<glyph unicode="H" horiz-adv-x="1515" d="M215 35v1364q0 35 35 35h18q35 0 35 -35v-639h909v639q0 35 35 35h19q34 0 34 -35v-1364q0 -35 -34 -35h-19q-35 0 -35 35v643h-909v-643q0 -35 -35 -35h-18q-35 0 -35 35z" />
<glyph unicode="I" horiz-adv-x="518" d="M215 35v1364q0 35 35 35h18q35 0 35 -35v-1364q0 -35 -35 -35h-18q-35 0 -35 35z" />
<glyph unicode="J" horiz-adv-x="1021" d="M59 403q0 33 35 33h21q29 0 32 -43q15 -334 293 -334q132 0 214.5 83t82.5 247v963h-307q-35 0 -35 34v13q0 35 35 35h361q34 0 34 -35v-1008q0 -215 -112 -315q-110 -101 -271 -101q-157 0 -272 103q-111 105 -111 325z" />
<glyph unicode="K" horiz-adv-x="1153" d="M215 35v1364q0 35 35 35h18q35 0 35 -35v-604h266l396 616q16 23 41 23h28q21 0 28 -12t-3 -31l-414 -633v-4l442 -713q9 -9 9 -21q0 -6 -2 -8q-6 -12 -29 -12h-31q-25 0 -41 23l-424 690h-266v-678q0 -35 -35 -35h-18q-35 0 -35 35z" />
<glyph unicode="L" horiz-adv-x="1001" d="M215 35v1364q0 35 35 35h18q35 0 35 -35v-1317h649q35 0 35 -35v-12q0 -35 -35 -35h-702q-35 0 -35 35z" />
<glyph unicode="M" horiz-adv-x="1699" d="M162 37l110 1364q3 33 35 33h25q29 0 41 -27l405 -875l70 -161h4q45 110 70 161l405 875q12 27 41 27h25q31 0 34 -33l111 -1364q0 -37 -35 -37h-18q-32 0 -35 33l-86 1061l-6 190h-4q-42 -125 -74 -190l-373 -791q-12 -27 -41 -27h-32q-29 0 -41 27l-371 791l-76 194h-4 q0 -124 -6 -194l-86 -1061q-3 -33 -35 -33h-18q-35 0 -35 37z" />
<glyph unicode="N" horiz-adv-x="1527" d="M215 35v1364q0 35 35 35h20q27 0 43 -23l801 -1102q40 -55 117 -180h4q-10 120 -10 180v1090q0 35 35 35h18q35 0 35 -35v-1364q0 -35 -35 -35h-21q-27 0 -43 23l-800 1101q-36 49 -117 181h-4q10 -120 10 -181v-1089q0 -35 -35 -35h-18q-35 0 -35 35z" />
<glyph unicode="O" horiz-adv-x="1675" d="M113 727q0 308 209 520q208 211 516 211t516 -211q209 -212 209 -520q0 -316 -209 -534t-516 -218t-516 218t-209 534zM205 727q0 -283 180 -475q181 -193 453 -193q269 0 450 193q182 194 182 475q0 276 -182 461q-180 186 -450 186q-273 0 -453 -186 q-180 -183 -180 -461z" />
<glyph unicode="P" horiz-adv-x="1191" d="M215 35v1364q0 35 35 35h436q189 0 313 -115q123 -114 123 -303q0 -193 -123 -307q-124 -115 -313 -115h-383v-559q0 -35 -35 -35h-18q-35 0 -35 35zM303 676h379q161 0 254.5 90.5t93.5 249.5q0 158 -93.5 247t-254.5 89h-379v-676z" />
<glyph unicode="Q" horiz-adv-x="1677" d="M115 725q0 309 207 522q208 211 514 211q315 0 520 -211q209 -212 209 -522q0 -303 -189 -510l160 -166q24 -25 0 -49l-8 -6q-24 -24 -49 0l-158 164q-201 -183 -485 -183q-308 0 -514 218q-207 219 -207 532zM207 725q0 -281 180 -473q181 -193 449 -193q249 0 426 160 l-160 166q-24 25 0 49l8 6q24 24 49 0l158 -164q156 188 156 449q0 277 -183 463q-180 186 -454 186q-269 0 -449 -186t-180 -463z" />
<glyph unicode="R" horiz-adv-x="1230" d="M215 35v1364q0 35 35 35h385q173 0 258 -43q93 -45 146 -135.5t53 -208.5q0 -151 -79 -258.5t-208 -137.5v-4q13 -13 33 -51l299 -555q6 -12 6 -23q0 -18 -31 -18h-29q-29 0 -41 25l-327 610h-412v-600q0 -35 -35 -35h-18q-35 0 -35 35zM303 717h389q139 0 223 91t84 239 q0 94 -45 167.5t-123 108.5q-69 29 -200 29h-328v-635z" />
<glyph unicode="S" horiz-adv-x="1056" d="M111 156q0 9 10 22l14 17q21 27 49 2q154 -136 351 -136q143 0 234 78t91 205q0 103 -71 181t-187 130l-217 95q-115 51 -186.5 137.5t-71.5 202.5q0 164 123 266q126 102 309 102q202 0 338 -112q26 -20 8 -48l-12 -18q-21 -27 -49 -6q-131 98 -289 98q-140 0 -238 -76 t-98 -200q0 -98 71 -172.5t187 -122.5q177 -70 248 -110q198 -113 223 -281q4 -28 4 -56q0 -164 -114 -272q-113 -107 -306 -107q-226 0 -409 154q-12 12 -12 27z" />
<glyph unicode="T" horiz-adv-x="1181" d="M12 1386v13q0 35 35 35h1088q34 0 34 -35v-13q0 -34 -34 -34h-500v-1317q0 -35 -35 -35h-18q-35 0 -35 35v1317h-500q-35 0 -35 34z" />
<glyph unicode="U" horiz-adv-x="1460" d="M195 492v907q0 35 34 35h19q35 0 35 -35v-903q0 -201 121 -319t325 -118q205 0 327 119t122 322v899q0 35 34 35h19q35 0 35 -35v-907q0 -236 -150 -377q-149 -140 -385 -140q-238 0 -389 142q-147 141 -147 375z" />
<glyph unicode="V" horiz-adv-x="1222" d="M37 1411q0 23 33 23h22q29 0 39 -29l422 -1131l55 -172h4q21 74 56 172l424 1131q10 29 38 29h23q33 0 33 -23q0 -6 -4 -18l-512 -1364q-10 -29 -39 -29h-39q-29 0 -39 29l-512 1364q-4 12 -4 18z" />
<glyph unicode="W" horiz-adv-x="1878" d="M94 1409q0 25 33 25h20q30 0 39 -31l295 -1137l35 -153h4q18 83 39 153l320 1139q10 29 39 29h36q29 0 39 -29l320 -1139l39 -153h4q10 55 35 153l305 1137q9 31 39 31h20q33 0 33 -25q0 -8 -2 -14l-369 -1366q-10 -29 -39 -29h-49q-29 0 -39 29l-295 1052l-55 228h-8 q-26 -129 -55 -228l-295 -1052q-10 -29 -39 -29h-49q-30 0 -39 31l-359 1364q-2 6 -2 14z" />
<glyph unicode="X" horiz-adv-x="1122" d="M55 23q0 9 6 18l439 717l-387 635q-10 17 -3 29t27 12h31q25 0 41 -23l260 -434l94 -160h4q62 117 88 160l263 434q16 23 40 23h31q23 0 29 -12t-6 -29l-389 -635l438 -717q8 -8 8 -21q0 -6 -2 -8q-6 -12 -29 -12h-28q-25 0 -41 23l-318 522l-92 153h-4 q-57 -107 -86 -155l-313 -520q-16 -23 -41 -23h-29q-20 0 -29 12q-2 2 -2 11z" />
<glyph unicode="Y" horiz-adv-x="1110" d="M43 1411q0 8 2 10q10 13 29 13h24q25 0 41 -23l326 -543l88 -161h4q53 104 88 161l326 543q16 23 41 23h24q19 0 29 -13q2 -2 2 -10q0 -9 -6 -18l-461 -770v-588q0 -35 -35 -35h-18q-35 0 -35 35v588l-463 770q-6 9 -6 18z" />
<glyph unicode="Z" horiz-adv-x="1155" d="M70 35v10q0 25 14 45l774 1131q50 74 98 131v4q-46 -4 -104 -4h-705q-34 0 -34 34v13q0 35 34 35h881q35 0 35 -35v-10q0 -26 -14 -46l-775 -1130q-50 -74 -98 -131v-4q46 4 105 4h753q35 0 35 -35v-12q0 -35 -35 -35h-930q-34 0 -34 35z" />
<glyph unicode="[" horiz-adv-x="514" d="M190 -160v1610q0 35 35 35h152q35 0 35 -35v-12q0 -35 -35 -35h-98v-1516h98q35 0 35 -34v-13q0 -35 -35 -35h-152q-35 0 -35 35z" />
<glyph unicode="\" horiz-adv-x="770" d="M92 1477q-6 17 2 28t27 11h18q28 0 41 -29l496 -1534q6 -17 -2 -28t-27 -11h-18q-28 0 -41 29z" />
<glyph unicode="]" horiz-adv-x="514" d="M102 -147q0 34 35 34h99v1516h-99q-35 0 -35 35v12q0 35 35 35h152q35 0 35 -35v-1610q0 -35 -35 -35h-152q-35 0 -35 35v13z" />
<glyph unicode="^" horiz-adv-x="1228" d="M176 557l373 850q12 27 41 27h8q29 0 41 -27l373 -850q15 -41 -27 -41h-20q-29 0 -41 27l-330 768l-330 -768q-12 -27 -41 -27h-20q-42 0 -27 41z" />
<glyph unicode="_" horiz-adv-x="1077" d="M31 -35q0 35 35 35h946q35 0 35 -35v-12q0 -35 -35 -35h-946q-35 0 -35 35v12z" />
<glyph unicode="`" horiz-adv-x="1042" d="M420 1751q6 12 26 12h37q25 0 41 -22l99 -164q11 -17 5 -29t-26 -12h-18q-27 0 -43 23l-115 161q-12 19 -6 31z" />
<glyph unicode="a" horiz-adv-x="1026" d="M80 272q0 202 192 285q63 26 114.5 38.5t123.5 18.5q106 11 205 11h67v34q0 306 -280 306q-139 0 -264 -78q-29 -19 -50 8l-8 12q-21 28 6 49q134 93 320 93q178 0 270 -98t92 -289v-627q0 -35 -34 -35h-17q-35 0 -35 35v100l9 92h-5q2 0 -10 -26t-39 -63t-67 -74 t-104 -63t-138 -26q-140 0 -244 76t-104 221zM170 279q0 -92 72 -158t190 -66q159 0 254 133q96 137 96 301v56h-65q-78 0 -105 -2q-46 0 -114 -8q-70 -6 -123 -25q-40 -12 -75.5 -30.5t-67.5 -45.5q-30 -28 -48 -68q-14 -33 -15 -70q0 -8 1 -17z" />
<glyph unicode="b" horiz-adv-x="1169" d="M172 35v1364q0 35 35 35h16q35 0 35 -35v-498l-8 -84h4q17 41 49 80q112 152 322 152q200 0 321 -148t121 -389q0 -242 -129 -389q-127 -148 -330 -148q-59 0 -112 16t-88.5 39t-66.5 53.5t-47 54t-28 46.5l-12 23h-4q8 -33 8 -90v-82q0 -35 -35 -35h-16q-35 0 -35 35z M256 510q0 -184 92 -317q96 -134 264 -134q154 0 260 121q105 123 105 332q0 207 -100 328q-98 125 -256 125q-162 0 -263.5 -118t-101.5 -337z" />
<glyph unicode="c" horiz-adv-x="1091" d="M98 510q0 236 154 387q158 152 375 152q203 0 344 -123q24 -21 2 -49l-10 -15q-21 -27 -50 -4q-122 107 -286 107q-185 0 -312 -127t-127 -328q0 -199 127 -326q125 -125 312 -125q184 0 315 119q25 25 47 -4l10 -14q9 -9 9 -21t-17 -26q-150 -138 -364 -138 q-223 0 -377 148q-152 152 -152 387z" />
<glyph unicode="d" horiz-adv-x="1169" d="M102 512q0 241 127 389q130 148 332 148q71 0 133.5 -23t104 -59t66.5 -67t40 -60l10 -23h5q-9 37 -9 84v498q0 35 35 35h17q34 0 34 -35v-1364q0 -35 -34 -35h-17q-35 0 -35 35v94l9 78h-5q-16 -38 -49 -82q-117 -150 -321 -150q-203 0 -324 148q-119 146 -119 389z M193 512q0 -205 98 -330q102 -123 258 -123q162 0 263 117.5t101 337.5q0 186 -94 317q-93 134 -262 134q-155 0 -260 -123q-104 -119 -104 -330z" />
<glyph unicode="e" horiz-adv-x="1112" d="M100 510q0 247 146 393t352 146q195 0 306.5 -132t111.5 -356q0 -35 -37 -35h-789q0 -217 125 -342t314 -125q169 0 289 105q28 22 47 -6l12 -17q18 -24 -8 -45q-145 -121 -340 -121q-223 0 -377 148q-152 152 -152 387zM197 606h729q-7 174 -98 268.5t-232 94.5 q-152 0 -262.5 -97.5t-136.5 -265.5z" />
<glyph unicode="f" horiz-adv-x="595" d="M70 975v8q0 35 34 35h95v47q0 110 34 191.5t91 119.5q103 68 198 68h19q34 0 34 -35v-12q0 -32 -43 -35q-50 -2 -84 -11.5t-75 -37.5q-88 -56 -88 -246v-49h245q35 0 35 -35v-8q0 -35 -35 -35h-245v-905q0 -35 -35 -35h-17q-34 0 -34 35v905h-95q-34 0 -34 35z" />
<glyph unicode="g" horiz-adv-x="1157" d="M104 535q0 235 121 374q122 140 328 140q225 0 328 -160l20 -41h4q-6 15 -6 39v102q0 35 35 35h16q35 0 35 -35v-983q0 -220 -135 -328q-132 -108 -332 -108q-156 0 -291 63q-31 13 -16 48l10 18q15 27 45 12q123 -57 252 -57q173 0 277 90t104 262v119l8 84h-4 q-102 -209 -344 -209q-203 0 -330 145q-125 143 -125 390zM195 537q0 -212 100.5 -332.5t269.5 -120.5q156 0 246 109.5t90 330.5q0 225 -92.5 333t-255.5 108q-171 0 -264.5 -112.5t-93.5 -315.5z" />
<glyph unicode="h" horiz-adv-x="1183" d="M172 35v1364q0 35 35 35h16q35 0 35 -35v-555l-8 -84h4q34 96 149 192q117 97 285 97q183 0 260.5 -98t77.5 -302v-614q0 -35 -35 -35h-16q-35 0 -35 35v583q0 120 -22 197q-44 150 -230 150q-180 0 -305 -131t-125 -330v-469q0 -35 -35 -35h-16q-35 0 -35 35z" />
<glyph unicode="i" horiz-adv-x="430" d="M164 1319v80q0 35 35 35h32q35 0 35 -35v-80q0 -35 -35 -35h-32q-35 0 -35 35zM172 35v954q0 35 35 35h16q35 0 35 -35v-954q0 -35 -35 -35h-16q-35 0 -35 35z" />
<glyph unicode="j" horiz-adv-x="430" d="M-119 -377q0 32 35 35q50 2 85.5 12.5t76.5 38.5q94 62 94 248v1032q0 35 35 35h16q35 0 35 -35v-1030q0 -114 -35 -196.5t-94 -118.5q-99 -64 -197 -64h-16q-35 0 -35 35v8zM164 1319v80q0 35 35 35h32q35 0 35 -35v-80q0 -35 -35 -35h-32q-35 0 -35 35z" />
<glyph unicode="k" horiz-adv-x="952" d="M172 35v1364q0 35 35 35h16q35 0 35 -35v-778h182l316 383q17 20 43 20h30q23 0 28 -13t-9 -30l-334 -397v-4l377 -537q8 -11 8 -23q0 -6 -2 -8q-6 -12 -29 -12h-30q-25 0 -41 23l-357 518h-182v-506q0 -35 -35 -35h-16q-35 0 -35 35z" />
<glyph unicode="l" horiz-adv-x="468" d="M174 207v1192q0 35 35 35h16q35 0 35 -35v-1163q0 -51 10.5 -84.5t32 -48.5t35.5 -20t41 -9q33 -3 33 -33v-12q0 -37 -37 -37q-22 0 -44 4t-51.5 17.5t-52 35.5t-38 63t-15.5 95z" />
<glyph unicode="m" horiz-adv-x="1863" d="M172 35v954q0 35 35 35h16q35 0 35 -35v-145l-8 -84h4q42 118 156 201q119 88 237 88q150 0 228.5 -69t95.5 -210h4q46 113 153 195q110 84 236 84q184 0 263 -98.5t79 -301.5v-614q0 -35 -35 -35h-16q-35 0 -35 35v583q0 177 -56.5 264t-199.5 87q-158 0 -270 -142 q-111 -141 -111 -317v-475q0 -35 -35 -35h-16q-35 0 -35 35v583q0 127 -25 199q-46 152 -225 152q-161 0 -276 -142q-113 -140 -113 -317v-475q0 -35 -35 -35h-16q-35 0 -35 35z" />
<glyph unicode="n" horiz-adv-x="1183" d="M172 35v954q0 35 35 35h16q35 0 35 -35v-145l-8 -84h4q34 96 149 192q117 97 285 97q183 0 260.5 -98t77.5 -302v-614q0 -35 -35 -35h-16q-35 0 -35 35v583q0 120 -22 197q-44 150 -230 150q-180 0 -305 -131q-125 -128 -125 -324v-475q0 -35 -35 -35h-16q-35 0 -35 35z " />
<glyph unicode="o" horiz-adv-x="1253" d="M96 518q0 223 154 377q157 154 377 154t374 -154q156 -153 156 -377q0 -229 -156 -385q-155 -158 -374 -158t-377 158q-154 157 -154 385zM186 518q0 -195 127 -328q128 -131 314 -131t311 131q129 132 129 328q0 189 -129 318q-126 129 -311 129t-314 -129 q-127 -130 -127 -318z" />
<glyph unicode="p" horiz-adv-x="1169" d="M172 -375v1364q0 35 35 35h16q35 0 35 -35v-88l-6 -82h4q18 42 47 80q117 150 322 150q200 0 321 -148t121 -389t-127 -389t-328 -148q-73 0 -137 23t-105.5 58.5t-66.5 67.5t-37 60l-12 23h-4q8 -33 8 -90v-492q0 -35 -35 -35h-16q-35 0 -35 35zM256 510q0 -180 96 -317 q96 -134 260 -134q154 0 260 121q105 123 105 332q0 207 -100 328q-98 125 -256 125q-162 0 -263.5 -118t-101.5 -337z" />
<glyph unicode="q" horiz-adv-x="1169" d="M102 512q0 241 127 389q130 148 332 148q209 0 326 -181l26 -49h5q-7 40 -7 82v88q0 35 35 35h17q34 0 34 -35v-1364q0 -35 -34 -35h-17q-35 0 -35 35v492l9 90h-5q-16 -38 -49 -82q-117 -150 -321 -150q-203 0 -324 148q-119 146 -119 389zM193 512q0 -205 98 -330 q102 -123 258 -123q162 0 263 117.5t101 337.5q0 186 -94 317q-93 134 -262 134q-155 0 -260 -123q-104 -119 -104 -330z" />
<glyph unicode="r" horiz-adv-x="657" d="M172 35v954q0 35 35 35h16q35 0 35 -35v-160l-8 -84h4q43 128 133.5 206.5t210.5 78.5q43 0 43 -35v-18q0 -35 -45 -35q-108 0 -188 -80q-150 -147 -150 -420v-407q0 -35 -35 -35h-16q-35 0 -35 35z" />
<glyph unicode="s" horiz-adv-x="868" d="M88 125q0 9 10 22l13 15q21 24 49 2q123 -105 291 -105q102 0 168.5 52t66.5 141q0 126 -199 201q-149 55 -203 85q-159 92 -161 234q0 133 94 203q95 74 234 74q171 0 278 -88q26 -20 8 -48l-12 -16q-20 -26 -49 -4q-93 72 -232 72q-102 0 -166.5 -48.5t-64.5 -138.5 q0 -129 201 -205l164 -65q88 -35 143 -101t55 -155q0 -122 -92.5 -199.5t-234.5 -77.5q-216 0 -347 125q-14 8 -14 25z" />
<glyph unicode="t" horiz-adv-x="616" d="M70 975v8q0 35 34 35h101v256q0 35 35 35h16q35 0 35 -35v-256h233q35 0 35 -35v-8q0 -35 -35 -35h-233v-563q0 -293 250 -305q41 -3 41 -35v-10q0 -35 -35 -35q-170 0 -256 98.5t-86 280.5v569h-101q-34 0 -34 35z" />
<glyph unicode="u" horiz-adv-x="1173" d="M158 375v614q0 35 35 35h16q35 0 35 -35v-583q0 -118 22 -199q45 -148 230 -148q184 0 301 138q118 136 118 327v465q0 35 35 35h17q34 0 34 -35v-954q0 -35 -34 -35h-17q-35 0 -35 35v145l9 84h-4q-35 -100 -148 -194q-115 -95 -276 -95q-180 0 -259 97t-79 303z" />
<glyph unicode="v" horiz-adv-x="940" d="M39 1004q0 20 31 20h20q30 0 39 -27l305 -776l35 -110h4q10 42 35 110l305 776q9 27 39 27h18q31 0 31 -20q0 -5 -4 -21l-375 -956q-9 -27 -39 -27h-24q-30 0 -39 27l-377 956q-4 16 -4 21z" />
<glyph unicode="w" horiz-adv-x="1615" d="M45 1001q0 23 33 23h18q31 0 41 -29l269 -774l34 -110h4l35 110l271 770q10 29 41 29h34q31 0 41 -29l271 -770l34 -110h5q11 43 34 110l269 774q10 29 41 29h18q33 0 33 -23q0 -4 -4 -16l-336 -956q-10 -29 -41 -29h-31q-31 0 -41 29l-274 766l-35 110h-4 q-10 -42 -35 -110l-272 -766q-10 -29 -41 -29h-31q-31 0 -41 29l-336 956q-4 12 -4 16z" />
<glyph unicode="x" horiz-adv-x="929" d="M57 20q0 11 9 23l340 498l-302 440q-12 19 -6 31t29 12h27q25 0 41 -23l233 -350l35 -57h4l35 57l233 350q16 23 41 23h27q23 0 28.5 -12t-6.5 -31l-301 -440l340 -498q8 -11 8 -23q0 -6 -2 -8q-6 -12 -28 -12h-29q-25 0 -41 23l-268 401l-37 59h-4q-17 -30 -37 -59 l-268 -401q-16 -23 -41 -23h-29q-23 0 -29 12q-2 2 -2 8z" />
<glyph unicode="y" horiz-adv-x="985" d="M14 -365q0 10 6 19l9 14q17 30 47 15q64 -31 98 -31q127 0 203 184l72 170l-408 977q-15 41 27 41h20q27 0 39 -27l328 -790l37 -96h4q21 66 34 96l328 790q12 27 39 27h21q30 0 30 -20q0 -5 -4 -21l-508 -1216q-83 -197 -262 -197q-74 0 -139 39q-21 9 -21 26z" />
<glyph unicode="z" horiz-adv-x="989" d="M74 35v10q0 29 14 43l606 762l80 94v4q-50 -4 -104 -4h-535q-35 0 -35 35v10q0 35 35 35h721q35 0 35 -35v-10q0 -29 -14 -43l-609 -762l-82 -94v-4q54 4 107 4h586q34 0 34 -35v-10q0 -35 -34 -35h-770q-35 0 -35 35z" />
<glyph unicode="{" horiz-adv-x="595" d="M68 647v21q0 27 28 39q146 53 146 235v164q0 114 29 197t75 120q80 60 148 60h10q35 0 35 -35v-12q0 -35 -35 -35q-50 0 -103 -43q-32 -27 -51.5 -93t-19.5 -157v-188q0 -102 -49.5 -168.5t-96.5 -83.5l-16 -9v-4q7 -2 17.5 -7t38.5 -25t49.5 -46.5t39 -75t17.5 -106.5 v-217q0 -91 19.5 -157t51.5 -93q53 -43 103 -43q35 0 35 -35v-12q0 -35 -35 -35h-10q-68 0 -148 60q-46 37 -75 120t-29 197v193q0 182 -146 235q-28 12 -28 39z" />
<glyph unicode="|" horiz-adv-x="464" d="M188 -283v1856q0 35 35 35h19q34 0 34 -35v-1856q0 -34 -34 -34h-19q-35 0 -35 34z" />
<glyph unicode="}" horiz-adv-x="598" d="M59 -150q0 35 35 35q51 0 101 43q33 27 53 93t20 157v217q0 57 16 104.5t41 77t47.5 46.5t41.5 24l16 8v4q-7 2 -17.5 7.5t-38.5 26.5t-49.5 48t-39 75t-17.5 104v188q0 91 -20 157t-53 93q-50 43 -101 43q-35 0 -35 35v12q0 35 35 35h10q71 0 146 -60 q49 -36 77.5 -118.5t28.5 -198.5v-164q0 -182 146 -235q28 -12 28 -39v-21q0 -27 -28 -39q-146 -53 -146 -235v-193q0 -116 -28.5 -198.5t-77.5 -118.5q-75 -60 -146 -60h-10q-35 0 -35 35v12z" />
<glyph unicode="~" horiz-adv-x="1189" d="M152 489q12 121 72.5 181.5t160.5 60.5q117 0 197 -80l61 -65q73 -80 164 -80q73 0 109.5 51t41.5 131q3 35 37 35h13q35 0 32 -37q-7 -130 -68.5 -194t-164.5 -64q-117 0 -197 80l-61 65q-76 80 -164 80q-73 0 -110 -51t-42 -131q-3 -35 -36 -35h-13q-35 0 -32 53z" />
<glyph unicode="&#xa2;" horiz-adv-x="1128" d="M119 717q0 237 108 393q112 160 320 178v135q0 35 35 35h18q35 0 35 -35v-135q233 -21 362 -258q16 -32 -18 -47l-18 -6q-30 -13 -46 16q-114 209 -319 209q-189 0 -287 -131t-98 -354t98 -354.5t287 -131.5q205 0 319 209q17 30 46 17l18 -8q33 -11 18 -46 q-126 -237 -362 -258v-137q0 -35 -35 -35h-18q-35 0 -35 35v137q-207 18 -320 177q-108 159 -108 395z" />
<glyph unicode="&#xa3;" horiz-adv-x="1134" d="M113 35v12q0 35 34 35h99v600h-58q-34 0 -34 35v12q0 35 34 35h58v332q0 153 114 258q113 104 289 104q148 0 273 -82q31 -22 4 -49l-13 -16q-22 -22 -49 -4q-106 65 -217 65q-144 0 -228.5 -80t-84.5 -205v-323h371q34 0 34 -35v-12q0 -35 -34 -35h-371v-600h684 q35 0 35 -35v-12q0 -35 -35 -35h-871q-34 0 -34 35z" />
<glyph unicode="&#xa5;" horiz-adv-x="1167" d="M75 1422q7 12 27 12h25q25 0 41 -23l326 -543l88 -161h4q53 104 88 161l325 543q16 23 41 23h25q20 0 27.5 -12t-2.5 -29l-355 -590h187q34 0 34 -35v-12q0 -35 -34 -35h-236l-57 -98v-86h293q34 0 34 -35v-13q0 -34 -34 -34h-293v-420q0 -35 -35 -35h-19q-34 0 -34 35 v420h-299q-35 0 -35 34v13q0 35 35 35h299v86l-60 98h-239q-35 0 -35 35v12q0 35 35 35h190l-354 590q-10 17 -3 29z" />
<glyph unicode="&#xa8;" horiz-adv-x="1042" d="M334 1649v80q0 34 35 34h24q35 0 35 -34v-80q0 -35 -35 -35h-24q-35 0 -35 35zM614 1649v80q0 34 35 34h25q35 0 35 -34v-80q0 -35 -35 -35h-25q-35 0 -35 35z" />
<glyph unicode="&#xa9;" horiz-adv-x="1699" d="M125 717q0 310 211 524q211 217 510 217q305 0 516 -217q213 -216 213 -524q0 -311 -213 -527q-212 -215 -516 -215q-300 0 -512 215q-209 215 -209 527zM217 717q0 -281 180 -467q183 -189 449 -189q269 0 452 189q185 188 185 467q0 277 -185 465q-181 190 -452 190 q-268 0 -449 -190q-180 -186 -180 -465zM430 715q0 174 117 303t323 129q178 0 314 -154q22 -29 -4 -49l-17 -14q-25 -21 -49 6q-105 123 -242 123q-166 0 -258 -103t-92 -239q0 -139 92 -242q90 -100 258 -100q140 0 242 123q25 28 49 4l15 -13q27 -21 6 -49 q-135 -153 -314 -153q-205 0 -323 127q-117 126 -117 301z" />
<glyph unicode="&#xab;" horiz-adv-x="954" d="M102 553q-21 25 0 49l299 377q17 20 43 20h27q23 0 29 -12t-8 -31l-302 -378l302 -377q14 -19 9 -31t-28 -12h-29q-26 0 -43 20zM430 553q-21 25 0 49l299 377q17 20 43 20h27q23 0 28.5 -12t-8.5 -31l-301 -378l301 -377q14 -19 9.5 -31t-27.5 -12h-29q-26 0 -43 20z " />
<glyph unicode="&#xad;" d="M154 573v13q0 35 34 35h496q35 0 35 -35v-13q0 -34 -35 -34h-496q-34 0 -34 34z" />
<glyph unicode="&#xae;" horiz-adv-x="1699" d="M125 717q0 310 211 524q211 217 510 217q305 0 516 -217q213 -216 213 -524q0 -311 -213 -527q-212 -215 -516 -215q-300 0 -512 215q-209 215 -209 527zM217 717q0 -281 180 -467q183 -189 449 -189q269 0 452 189q185 188 185 467q0 277 -185 465q-181 190 -452 190 q-268 0 -449 -190q-180 -186 -180 -465zM608 342v750q0 34 35 34h238q105 0 171 -66t66 -171q0 -84 -43.5 -142.5t-113.5 -76.5v-4q5 -5 26 -45l141 -273q21 -41 -26 -41h-25q-29 0 -41 25l-162 317h-176v-307q0 -35 -34 -35h-21q-35 0 -35 35zM698 727h172q72 0 114 43.5 t42 118.5q0 73 -42 114t-114 41h-172v-317z" />
<glyph unicode="&#xb4;" horiz-adv-x="1042" d="M417 1548q-7 12 3 29l98 164q16 22 41 22h37q20 0 26 -12t-6 -31l-114 -161q-16 -23 -43 -23h-15q-20 0 -27 12z" />
<glyph unicode="&#xb8;" horiz-adv-x="1042" d="M383 -377q0 41 31 41q1 0 20 -3t33 -3q111 0 111 76q0 69 -105 78q-18 2 -28.5 15t-6.5 32l37 174h72l-29 -156q64 -11 102.5 -47.5t38.5 -91.5q0 -77 -51.5 -116.5t-134.5 -39.5q-90 0 -90 41z" />
<glyph unicode="&#xbb;" horiz-adv-x="954" d="M129 170q-6 12 8 31l301 377l-301 378q-14 19 -8 31t29 12h26q26 0 43 -20l299 -377q21 -24 0 -49l-299 -375q-17 -20 -43 -20h-26q-23 0 -29 12zM456.5 170q-5.5 12 8.5 31l301 377l-301 378q-14 19 -8.5 31t28.5 12h27q26 0 43 -20l299 -377q21 -24 0 -49l-299 -375 q-17 -20 -43 -20h-27q-23 0 -28.5 12z" />
<glyph unicode="&#xc2;" horiz-adv-x="1224" d="M43 41l512 1364q10 29 39 29h37q29 0 39 -29l512 -1364q15 -41 -29 -41h-23q-29 0 -38 27l-177 469h-608l-174 -467q-10 -29 -39 -29h-22q-44 0 -29 41zM338 578h547l-217 581l-54 172h-4q-22 -81 -53 -172zM420 1548q-6 12 6 31l117 162q16 22 43 22h53q27 0 43 -22 l117 -162q12 -19 6.5 -31t-25.5 -12h-24q-25 0 -41 23l-101 141h-4l-100 -141q-16 -23 -41 -23h-23q-20 0 -26 12z" />
<glyph unicode="&#xc7;" horiz-adv-x="1464" d="M117 727q0 313 200 522t510 209q295 0 488 -158q22 -22 4 -49l-10 -12q-22 -25 -49 -4q-195 139 -431 139q-271 0 -446 -184q-174 -180 -174 -463q0 -285 174 -477q176 -191 453 -191q254 0 460 170q26 22 50 -2l8 -10q22 -25 -2 -49q-205 -187 -502 -193l-19 -98 q64 -11 103 -48t39 -91q0 -76 -52 -116t-135 -40q-90 0 -90 41t31 41q2 0 20 -3t33 -3q111 0 111 76q0 69 -105 78q-18 2 -28 14.5t-6 32.5l24 118q-291 21 -477 234q-182 212 -182 516z" />
<glyph unicode="&#xce;" horiz-adv-x="518" d="M68 1548q-6 12 6 31l116 162q16 22 43 22h54q27 0 43 -22l116 -162q12 -19 7 -31t-25 -12h-25q-25 0 -41 23l-100 141h-4l-100 -141q-16 -23 -41 -23h-23q-20 0 -26 12zM215 35v1364q0 35 35 35h18q35 0 35 -35v-1364q0 -35 -35 -35h-18q-35 0 -35 35z" />
<glyph unicode="&#xd6;" horiz-adv-x="1675" d="M113 727q0 308 209 520q208 211 516 211t516 -211q209 -212 209 -520q0 -316 -209 -534t-516 -218t-516 218t-209 534zM205 727q0 -283 180 -475q181 -193 453 -193q269 0 450 193q182 194 182 475q0 276 -182 461q-180 186 -450 186q-273 0 -453 -186 q-180 -183 -180 -461zM651 1649v80q0 34 35 34h25q34 0 34 -34v-80q0 -35 -34 -35h-25q-35 0 -35 35zM932 1649v80q0 34 35 34h24q35 0 35 -34v-80q0 -35 -35 -35h-24q-35 0 -35 35z" />
<glyph unicode="&#xdb;" horiz-adv-x="1460" d="M195 492v907q0 35 34 35h19q35 0 35 -35v-903q0 -201 121 -319t325 -118q205 0 327 119t122 322v899q0 35 34 35h19q35 0 35 -35v-907q0 -236 -150 -377q-149 -140 -385 -140q-238 0 -389 142q-147 141 -147 375zM537 1548q-6 12 6 31l116 162q16 22 43 22h54 q27 0 43 -22l116 -162q12 -19 7 -31t-25 -12h-25q-25 0 -41 23l-100 141h-4l-100 -141q-16 -23 -41 -23h-23q-20 0 -26 12z" />
<glyph unicode="&#xdc;" horiz-adv-x="1460" d="M195 492v907q0 35 34 35h19q35 0 35 -35v-903q0 -201 121 -319t325 -118q205 0 327 119t122 322v899q0 35 34 35h19q35 0 35 -35v-907q0 -236 -150 -377q-149 -140 -385 -140q-238 0 -389 142q-147 141 -147 375zM543 1649v80q0 34 35 34h24q35 0 35 -34v-80 q0 -35 -35 -35h-24q-35 0 -35 35zM823 1649v80q0 34 35 34h25q35 0 35 -34v-80q0 -35 -35 -35h-25q-35 0 -35 35z" />
<glyph unicode="&#xe2;" horiz-adv-x="1026" d="M80 272q0 202 192 285q63 26 114.5 38.5t123.5 18.5q106 11 205 11h67v34q0 306 -280 306q-139 0 -264 -78q-29 -19 -50 8l-8 12q-21 28 6 49q134 93 320 93q178 0 270 -98t92 -289v-627q0 -35 -34 -35h-17q-35 0 -35 35v100l9 92h-5q2 0 -10 -26t-39 -63t-67 -74 t-104 -63t-138 -26q-140 0 -244 76t-104 221zM170 279q0 -92 72 -158t190 -66q159 0 254 133q96 137 96 301v56h-65q-78 0 -105 -2q-46 0 -114 -8q-70 -6 -123 -25q-40 -12 -75.5 -30.5t-67 -46t-49 -67.5t-13.5 -87zM313.5 1218q-6.5 12 5.5 31l117 162q16 23 43 23h53 q27 0 43 -23l117 -162q12 -19 7 -31t-25 -12h-25q-25 0 -41 23l-100 141h-4l-101 -141q-16 -23 -41 -23h-22q-20 0 -26.5 12z" />
<glyph unicode="&#xe7;" horiz-adv-x="1095" d="M100 510q0 236 154 387q158 152 375 152q203 0 344 -123q24 -21 2 -49l-10 -15q-21 -27 -50 -4q-122 107 -286 107q-185 0 -312 -127t-127 -328q0 -199 127 -326q125 -125 312 -125q184 0 315 119q25 25 47 -4l10 -14q19 -26 -8 -47q-147 -135 -354 -138l-18 -98 q64 -11 102.5 -47.5t38.5 -91.5q0 -76 -52 -116t-135 -40q-90 0 -90 41t31 41q1 0 20 -3t33 -3q111 0 111 76q0 69 -105 78q-18 2 -28 14.5t-6 32.5l24 121q-204 22 -334 163q-131 143 -131 367z" />
<glyph unicode="&#xee;" horiz-adv-x="430" d="M25 1218q-6 12 6 31l116 162q16 23 43 23h54q27 0 43 -23l116 -162q12 -19 7 -31t-25 -12h-25q-25 0 -41 23l-100 141h-4l-100 -141q-16 -23 -41 -23h-23q-20 0 -26 12zM172 35v954q0 35 35 35h16q35 0 35 -35v-954q0 -35 -35 -35h-16q-35 0 -35 35z" />
<glyph unicode="&#xf6;" horiz-adv-x="1253" d="M96 518q0 223 154 377q157 154 377 154t374 -154q156 -153 156 -377q0 -229 -156 -385q-155 -158 -374 -158t-377 158q-154 157 -154 385zM186 518q0 -195 127 -328q128 -131 314 -131t311 131q129 132 129 328q0 189 -129 318q-126 129 -311 129t-314 -129 q-127 -130 -127 -318zM440 1319v80q0 35 35 35h25q35 0 35 -35v-80q0 -35 -35 -35h-25q-35 0 -35 35zM721 1319v80q0 35 35 35h24q35 0 35 -35v-80q0 -35 -35 -35h-24q-35 0 -35 35z" />
<glyph unicode="&#xfb;" horiz-adv-x="1173" d="M158 375v614q0 35 35 35h16q35 0 35 -35v-583q0 -118 22 -199q45 -148 230 -148q184 0 301 138q118 136 118 327v465q0 35 35 35h17q34 0 34 -35v-954q0 -35 -34 -35h-17q-35 0 -35 35v145l9 84h-4q-35 -100 -148 -194q-115 -95 -276 -95q-180 0 -259 97t-79 303z M387.5 1218q-6.5 12 5.5 31l117 162q16 23 43 23h53q27 0 43 -23l117 -162q12 -19 7 -31t-25 -12h-25q-25 0 -41 23l-100 141h-4l-101 -141q-16 -23 -41 -23h-22q-20 0 -26.5 12z" />
<glyph unicode="&#xfc;" horiz-adv-x="1173" d="M158 375v614q0 35 35 35h16q35 0 35 -35v-583q0 -118 22 -199q45 -148 230 -148q184 0 301 138q118 136 118 327v465q0 35 35 35h17q34 0 34 -35v-954q0 -35 -34 -35h-17q-35 0 -35 35v145l9 84h-4q-35 -100 -148 -194q-115 -95 -276 -95q-180 0 -259 97t-79 303z M393 1319v80q0 35 35 35h25q34 0 34 -35v-80q0 -35 -34 -35h-25q-35 0 -35 35zM674 1319v80q0 35 35 35h24q35 0 35 -35v-80q0 -35 -35 -35h-24q-35 0 -35 35z" />
<glyph unicode="&#x11e;" horiz-adv-x="1525" d="M115 717q0 313 204 526q206 215 510 215q273 0 474 -139q28 -22 4 -49l-11 -13q-19 -29 -49 -8q-180 125 -418 125q-267 0 -446 -188q-176 -188 -176 -469q0 -282 172 -469q177 -189 438 -189q86 1 166.5 24t140.5 59.5t98 67t66 60.5l21 25v276h-222q-34 0 -34 35v12 q0 35 34 35h275q35 0 35 -35v-583q0 -35 -35 -35h-19q-34 0 -34 35v90l2 61h-4q-20 -24 -82 -73q-52 -42 -99 -66q-61 -30 -144.5 -51t-164.5 -21q-298 0 -502 213q-200 215 -200 529zM600 1731q0 32 35 32h12q32 0 35 -28q9 -127 125 -127t125 129q3 26 35 26h12 q35 0 35 -32q0 -82 -60.5 -141.5t-146.5 -59.5t-146.5 58t-60.5 143z" />
<glyph unicode="&#x11f;" horiz-adv-x="1157" d="M104 535q0 235 121 374q122 140 328 140q225 0 328 -160l20 -41h4q-6 15 -6 39v102q0 35 35 35h16q35 0 35 -35v-983q0 -220 -135 -328q-132 -108 -332 -108q-156 0 -291 63q-31 13 -16 48l10 18q15 27 45 12q123 -57 252 -57q173 0 277 90t104 262v119l8 84h-4 q-102 -209 -344 -209q-203 0 -330 145q-125 143 -125 390zM195 537q0 -212 100.5 -332.5t269.5 -120.5q156 0 246 109.5t90 330.5q0 225 -92.5 333t-255.5 108q-171 0 -264.5 -112.5t-93.5 -315.5zM358 1401q0 33 35 33h13q31 0 34 -29q9 -127 125 -127t125 129q3 27 35 27 h12q35 0 35 -33q0 -82 -60.5 -141.5t-146.5 -59.5t-146.5 58t-60.5 143z" />
<glyph unicode="&#x130;" horiz-adv-x="518" d="M213 1649v80q0 34 35 34h24q35 0 35 -34v-80q0 -35 -35 -35h-24q-35 0 -35 35zM215 35v1364q0 35 35 35h18q35 0 35 -35v-1364q0 -35 -35 -35h-18q-35 0 -35 35z" />
<glyph unicode="&#x131;" horiz-adv-x="430" d="M172 35v954q0 35 35 35h16q35 0 35 -35v-954q0 -35 -35 -35h-16q-35 0 -35 35z" />
<glyph unicode="&#x15e;" horiz-adv-x="1060" d="M123 178l14 17q21 27 49 2q154 -136 351 -136q143 0 234 78t91 205q0 112 -76 188q-77 77 -184 123l-213 95q-117 55 -188.5 140t-71.5 200q0 164 123 266q126 102 309 102q202 0 338 -112q26 -20 8 -48l-12 -18q-21 -27 -49 -6q-131 98 -289 98q-140 0 -238 -76 t-98 -200q0 -98 71 -172.5t187 -122.5q177 -70 248 -110q198 -113 223 -281q4 -28 4 -56q0 -157 -104 -264q-101 -104 -281 -113l-18 -100q64 -11 102.5 -47.5t38.5 -91.5q0 -77 -51.5 -116.5t-134.5 -39.5q-90 0 -90 41t30 41q1 0 20.5 -3t33.5 -3q110 0 110 76 q0 69 -104 78q-18 2 -28.5 15t-6.5 32l25 118q-216 15 -371 152q-24 24 -2 49z" />
<glyph unicode="&#x15f;" d="M100 147l13 15q21 24 49 2q120 -105 291 -105q102 0 168.5 52t66.5 141q0 126 -199 201q-149 55 -203 85q-159 92 -161 234q0 133 94 203q95 74 234 74q171 0 278 -88q26 -20 8 -48l-12 -16q-20 -26 -49 -4q-93 72 -232 72q-102 0 -166.5 -48.5t-64.5 -138.5 q0 -126 199 -205l166 -65q88 -35 143 -101t55 -155q0 -115 -84.5 -191t-216.5 -84l-18 -100q64 -11 102.5 -47.5t38.5 -91.5q0 -77 -51.5 -116.5t-134.5 -39.5q-90 0 -90 41t30 41q2 0 20.5 -3t33.5 -3q110 0 110 76q0 69 -104 78q-18 2 -28.5 15t-6.5 32l24 118 q-185 15 -299 123q-24 21 -4 47z" />
<glyph unicode="&#x2c6;" horiz-adv-x="1040" d="M328 1548q-6 12 6 31l117 162q16 22 43 22h53q27 0 43 -22l117 -162q12 -19 6.5 -31t-25.5 -12h-24q-25 0 -41 23l-101 141h-4l-100 -141q-16 -23 -41 -23h-23q-20 0 -26 12z" />
<glyph unicode="&#x2da;" horiz-adv-x="1044" d="M386 1652.5q0 60.5 38 98.5t98.5 38t98.5 -38t38 -98.5t-38 -98.5t-98.5 -38t-98.5 38t-38 98.5zM457 1653q0 -30 20.5 -47.5t45 -17.5t45 17.5t20.5 47.5q0 31 -20.5 49t-45 18t-45 -18t-20.5 -49z" />
<glyph unicode="&#x2dc;" horiz-adv-x="1042" d="M227 1587q0 79 46.5 127.5t121.5 48.5q38 0 69.5 -15.5t53.5 -37.5t41.5 -44.5t43.5 -38t50 -15.5q39 0 60.5 32.5t21.5 79.5q0 33 37 33h12q31 0 31 -37q0 -86 -45 -135t-123 -49q-38 0 -69.5 15.5t-53.5 38t-41.5 45t-43.5 38t-50 15.5q-40 0 -61 -31.5t-21 -81.5 q0 -33 -37 -33h-12q-31 0 -31 45z" />
<glyph unicode="&#x2000;" horiz-adv-x="894" />
<glyph unicode="&#x2001;" horiz-adv-x="1789" />
<glyph unicode="&#x2002;" horiz-adv-x="894" />
<glyph unicode="&#x2003;" horiz-adv-x="1789" />
<glyph unicode="&#x2004;" horiz-adv-x="596" />
<glyph unicode="&#x2005;" horiz-adv-x="447" />
<glyph unicode="&#x2006;" horiz-adv-x="298" />
<glyph unicode="&#x2007;" horiz-adv-x="298" />
<glyph unicode="&#x2008;" horiz-adv-x="223" />
<glyph unicode="&#x2009;" horiz-adv-x="357" />
<glyph unicode="&#x200a;" horiz-adv-x="99" />
<glyph unicode="&#x2010;" d="M154 573v13q0 35 34 35h496q35 0 35 -35v-13q0 -34 -35 -34h-496q-34 0 -34 34z" />
<glyph unicode="&#x2011;" d="M154 573v13q0 35 34 35h496q35 0 35 -35v-13q0 -34 -35 -34h-496q-34 0 -34 34z" />
<glyph unicode="&#x2012;" d="M154 573v13q0 35 34 35h496q35 0 35 -35v-13q0 -34 -35 -34h-496q-34 0 -34 34z" />
<glyph unicode="&#x2013;" horiz-adv-x="1282" d="M154 573v13q0 35 34 35h906q34 0 34 -35v-13q0 -34 -34 -34h-906q-34 0 -34 34z" />
<glyph unicode="&#x2014;" horiz-adv-x="1691" d="M154 573v13q0 35 34 35h1315q35 0 35 -35v-13q0 -34 -35 -34h-1315q-34 0 -34 34z" />
<glyph unicode="&#x2018;" horiz-adv-x="397" d="M117 1098l100 323q10 29 39 29h10q40 0 31 -39l-80 -321q-6 -31 -37 -31h-35q-40 0 -28 39z" />
<glyph unicode="&#x2019;" horiz-adv-x="393" d="M119 1098l80 321q6 31 37 31h34q41 0 29 -39l-100 -324q-9 -28 -39 -28h-10q-40 0 -31 39z" />
<glyph unicode="&#x201a;" horiz-adv-x="442" d="M98 -227l80 321q6 31 37 31h35q41 0 29 -39l-101 -324q-9 -28 -39 -28h-10q-37 0 -31 39z" />
<glyph unicode="&#x201c;" horiz-adv-x="622" d="M117 1098l100 323q10 29 39 29h10q37 0 31 -39l-80 -321q-6 -31 -37 -31h-35q-40 0 -28 39zM342 1098l100 323q10 29 39 29h11q36 0 30 -39l-80 -321q-6 -31 -36 -31h-35q-41 0 -29 39z" />
<glyph unicode="&#x201d;" horiz-adv-x="618" d="M119 1098l80 321q6 31 37 31h34q41 0 29 -39l-100 -324q-9 -28 -39 -28h-10q-40 0 -31 39zM344 1098l80 321q6 31 37 31h35q40 0 28 -39l-100 -324q-9 -28 -39 -28h-10q-40 0 -31 39z" />
<glyph unicode="&#x201e;" horiz-adv-x="667" d="M98 -227l80 321q6 31 37 31h35q41 0 29 -39l-101 -324q-9 -28 -39 -28h-10q-40 0 -31 39zM324 -227l79 321q6 31 37 31h35q41 0 29 -39l-101 -324q-9 -28 -38 -28h-11q-39 0 -30 39z" />
<glyph unicode="&#x2026;" horiz-adv-x="1304" d="M154 35v59q0 35 34 35h56q35 0 35 -35v-59q0 -35 -35 -35h-56q-34 0 -34 35zM590 35v59q0 35 35 35h55q35 0 35 -35v-59q0 -35 -35 -35h-55q-35 0 -35 35zM1026 35v59q0 35 35 35h55q35 0 35 -35v-59q0 -35 -35 -35h-55q-35 0 -35 35z" />
<glyph unicode="&#x202f;" horiz-adv-x="357" />
<glyph unicode="&#x2039;" horiz-adv-x="626" d="M102 553q-21 25 0 49l299 377q17 20 43 20h27q23 0 29 -12t-8 -31l-302 -378l302 -377q14 -19 9 -31t-28 -12h-29q-26 0 -43 20z" />
<glyph unicode="&#x203a;" horiz-adv-x="626" d="M129 170q-6 12 8 31l301 377l-301 378q-14 19 -8 31t29 12h26q26 0 43 -20l299 -377q21 -24 0 -49l-299 -375q-17 -20 -43 -20h-26q-23 0 -29 12z" />
<glyph unicode="&#x205f;" horiz-adv-x="447" />
<glyph unicode="&#x20ac;" horiz-adv-x="1212" d="M92 600q0 41 35 41h76q-4 36 -4 86q0 59 6 96h-78q-35 0 -35 41t35 41h92q60 248 244 398q186 155 438 155q82 0 148 -14q35 -6 26 -43l-4 -17q-8 -32 -43 -26q-63 14 -127 14q-219 0 -375 -129q-158 -127 -213 -338h633q40 0 31 -45q-9 -37 -41 -37h-639 q-14 -72 -4 -182h606q40 0 31 -45q-9 -37 -41 -37h-584q47 -223 209 -360q164 -138 387 -138q75 0 148 17q33 6 43 -23l4 -18q10 -32 -25 -41q-89 -21 -170 -21q-259 0 -448 162q-190 163 -240 422h-86q-35 0 -35 41z" />
<glyph unicode="&#x2122;" horiz-adv-x="1931" d="M86 1391v8q0 35 35 35h667q35 0 35 -35v-8q0 -35 -35 -35h-294v-781q0 -34 -35 -34h-10q-35 0 -35 34v781h-293q-35 0 -35 35zM909 578l68 823q3 33 35 33h10q29 0 41 -27l246 -526l28 -82h4q7 33 29 82l246 526q12 27 41 27h10q32 0 35 -33l67 -823q0 -37 -34 -37h-9 q-31 0 -34 32l-56 639l2 58h-4l-248 -535q-12 -26 -40 -26h-13q-29 0 -41 26l-248 535h-4l2 -58l-55 -639q-3 -32 -35 -32h-8q-35 0 -35 37z" />
<glyph unicode="&#x25fc;" horiz-adv-x="1024" d="M0 0v1024h1024v-1024h-1024z" />
</font>
</defs>
</svg>
